Quick Browse
Movies
TV shows
Music
Games
Applications
Anime
Other
Facebook
Advertising

Friends
Torrent Download
Movie4u
1337x.to
Torrent Downloads




PREDATORS 2010[HindiDubbed]~Striker~TDA


    Seeders : 0      Leechers : 0
Hash :0616F5AD2E5939D42F6DDE735802B0476F968580
Added :1 Year+ by striker123Verified torrent uploader in Movies
Size :709.68 MB
Stream :WATCH ONLINE @ Movie4u


PREDATORS 2010[HindiDubbed]~Striker~TDA
Free and Fast Download with Usenet 300GB+ free







Trackers List

Tracker NameLast CheckStatusSeedersLeechers




Torrent File Content (5 files)


PREDATORS 2010[HindiDubbed]~Striker~TDA
     Sample.mkv -
705.59 MB

     PREDATORS 2010[Hindi Dubbed]~Striker~TDA.mkv -
4.09 MB

     TeamTDA.jpg -
0 bytes

     More Movies.url -
0 bytes

     Tracked By DesiAdda.com.txt -
0 bytes



Description




http://i50.photobucket.com/albums/f330/shahaz123/predat.png


http://www.image.videorockers.in/hosted/90fd1472acca77fa1ca3fd9bf9c23760.jpg


http://i51.tinypic.com/n13txv.png


[CODE]
General
Format : Matroska
File size : 706 MiB
Duration : 1h 41mn
Overall bit rate : 970 Kbps
Encoded date : UTC 2010-09-26 15:00:06
Writing application : mkvmerge v4.2.0 ('No Talking') built on Jul 28 2010 18:38:23
Writing library : libebml v1.0.0 + libmatroska v1.0.0
Video
ID : 1
Format : AVC
Format/Info : Advanced Video Codec
Format profile : [email protected]
Format settings, CABAC : Yes
Format settings, ReFrames : 1 frame
Muxing mode : Container [email protected]
Codec ID : V_MPEG4/ISO/AVC
Duration : 1h 41mn
Bit rate : 886 Kbps
Nominal bit rate : 906 Kbps
Width : 652 pixels
Height : 278 pixels
Display aspect ratio : 2.35:1
Frame rate : 23.976 fps
Resolution : 24 bits
Colorimetry : 4:2:0
Scan type : Progressive
Bits/(Pixel*Frame) : 0.204
Stream size : 644 MiB (91%)
Writing library : x264 core 67 r1163+17 7d945df
Encoding settings : cabac=1 / ref=1 / deblock=1:0:0 / analyse=0x1:0x111 / me=hex / subme=6 / psy_rd=1.0:0.0 / mixed_ref=0 / me_range=16 / chroma_me=1 / trellis=0 / 8x8dct=0 / cqm=0 / deadzone=21,11 / chroma_qp_offset=-2 / threads=1 / nr=0 / decimate=1 / mbaff=0 / bframes=0 / keyint=250 / keyint_min=25 / scenecut=40 / rc=abr / bitrate=906 / ratetol=1.0 / qcomp=0.60 / qpmin=10 / qpmax=51 / qpstep=4 / ip_ratio=1.40 / aq=1:1.00
Audio
ID : 2
Format : MPEG Audio
Format version : Version 2
Format profile : Layer 3
Codec ID : A_MPEG/L3
Codec ID/Hint : MP3
Duration : 1h 41mn
Bit rate mode : Constant
Bit rate : 64.0 Kbps
Channel(s) : 2 channels
Sampling rate : 22.05 KHz
Resolution : 16 bits
Stream size : 46.6 MiB (7%)

[/CODE]

http://i51.tinypic.com/2cgga6v.png

http://i50.photobucket.com/albums/f330/shahaz123/1-1.jpg

http://i50.photobucket.com/albums/f330/shahaz123/4.jpg

http://i50.photobucket.com/albums/f330/shahaz123/3.jpg

http://i50.photobucket.com/albums/f330/shahaz123/2.jpg



http://i55.tinypic.com/2dah9bk.png

Related torrents

Torrent NameAddedSizeSeedLeechHealth
1 Good
Verified torrent
1 Year+ - in Movies697.18 MB118
Verified torrent
1 Year+ - in Movies698.92 MB22
Verified torrent
1 Year+ - in Movies288.34 MB60
1 Year+ - in Movies300.37 MB10

Comments (0 Comments)




Please login or create a FREE account to post comments

Latest Searches

| paradise kitty | sexting maya bijou | Exploitedcollegegirls full | final destination 2000 dual | malwarebytes anti malware 1 62 0 1300 | My Girl Loves Anal 5 | Oliver Nelson Found Your Love | lingerie dancing | Dr Soc 2016 non fiction | secrets lies special |