Quick Browse
Movies
TV shows
Music
Games
Applications
Anime
Other
Facebook
Advertising

Friends
Torrent Download
Movie4u
1337x.to
Torrent Downloads




Pandorum (2009) MPEG-4 (IPONE) (NL SUBS) Pioen 2Lions-Team


    Seeders : 3      Leechers : 1
Hash :781B3233CF1C3489F3244F0D47DBF0D6D639BC1E
Added :1 Year+ in Movies
Size :1.18 GB
Stream :WATCH ONLINE @ Movie4u


Pandorum (2009) MPEG-4 (IPONE) (NL SUBS) Pioen 2Lions-Team
Free and Fast Download with Usenet 300GB+ free







Trackers List

Tracker NameLast CheckStatusSeedersLeechers




Torrent File Content (5 files)


Pandorum (2009) MPEG-4 (IPONE) 2Lions-Team
    INFO 2Lions-Team
          logo 2Lions.jpg -
314.99 KB

          pandorum.jpg -
81.29 KB

          Pandorum (2009) MPEG-4 (IPONE) 2Lions-Team.txt -
3.66 KB

          Torrents aan geboden door _2lions.ons-forum.nl.txt -
583 bytes

    MOVIE
          Pandorum (2009).mp4 -
1.18 GB



Description



Pandorum (2009) MPEG-4 (IPONE)


http://img32.imageshack.us/img32/2259/pandorumx.jpg


**********Vanaf 22 oktober in de bioscoop************

Genre : Horror
Science Fiction

Verenigde Staten / Duitsland
Horror / Science-Fiction
108 minuten

geregisseerd door Christian Alvart
met Dennis Quaid, Ben Foster en Cam Gigandet

Payton (Dennis Quaid) en Bower (Ben Foster) zijn twee ruimtereizigers die wakker worden op hun schip zonder dat ze nog weten wat hun missie was. Als ze door wat wazige herinneringen proberen uit te vinden wat hun doel was op deze missie, komen ze erachter dat ze niet alleen zijn, maar dat ''iets'' het op hen heeft gemunt...


English

Two crew members are stranded on a spacecraft and quickly - and horrifically - realize they are not alone. Two astronauts awaken in a hyper-sleep chamber aboard a seemingly abandoned spacecraft. It's pitch black, they are disoriented, and the only sound is a low rumble and creak from the belly of the ship. They can't remember anything: Who are they? What is their mission? With Lt. Payton staying behind to guide him via radio transmitter, Cpl. Bower ventures deep into the ship and begins to uncover a terrifying reality. Slowly the spacecraft's shocking, deadly secrets are revealed...and the astronauts find their own survival is more important than they could ever have imagined.



Source.............: Pandorum.2009.D.DVD.ELEKTRI4KA
Audio : English
Subs : Dutch (HARDCODED)

Format : MPEG-4
Format profile : Base Media
Codec ID : isom
File size : 1.18 GiB
Duration : 1h 43mn
Overall bit rate : 1 631 Kbps


Video
ID : 1
Format : MPEG-4 Visual
Format profile : [email protected]
Format settings, BVOP : No
Format settings, QPel : No
Format settings, GMC : No warppoints
Format settings, Matrix : Default (H.263)
Codec ID : 20
Duration : 1h 43mn
Bit rate mode : Variable
Bit rate : 1 498 Kbps
Width : 720 pixels
Height : 406 pixels
Display aspect ratio : 16/9
Frame rate mode : Constant
Frame rate : 25.000 fps
Resolution : 24 bits
Colorimetry : 4:2:0
Scan type : Progressive
Bits/(Pixel*Frame) : 0.205
Stream size : 1.08 GiB (92%)
Writing library : Lavc51.40.4


Audio
ID : 2
Format : AAC
Format/Info : Advanced Audio Codec
Format version : Version 4
Format profile : LC
Format settings, SBR : No
Codec ID : 40
Duration : 1h 43mn
Bit rate mode : Variable
Bit rate : 128 Kbps
Channel(s) : 2 channels
Channel positions : L R
Sampling rate : 48.0 KHz
Resolution : 16 bits
Stream size : 94.8 MiB (8%)




Genre : Horror
Science Fiction

Weblink : http://www.moviemeter.nl/film/53151
Weblink : http://www.imdb.com/title/tt1188729



*****************************************

Brought to you by
Pioen
http://i226.photobucket.com/albums/dd118/FloraKing/Avator/bloemenmeisje.gif

2Lions Team



http://i845.photobucket.com/albums/ab16/hortencia9/_96637_four_weddings_and_a_funeral_.jpg



2Lions-Team for all your Dutch MOVIES and more

*****************************************

DON T HIT AND RUN Niet gelijk afhaken als de film binnen is blijf seeden.

Related torrents

Torrent NameAddedSizeSeedLeechHealth
1 Year+ - in Movies4.13 GB00
1 Year+ - in Movies1.01 GB1842
1 Year+ - in Movies1.13 GB13
1 Year+ - in Movies1.09 GB2215
1 Year+ - in Movies1.11 GB2333

Comments (0 Comments)




Please login or create a FREE account to post comments

Latest Searches

| NATURE The Story of Cats | Oliver Heldens Throttle Waiting Radio Edit | greatest hits shania twain mp3 | snowden 1080p bluray | hardcore in stockings | Google Circles | ravel sonatine | Dark X a Angel Smalls | killa kyleon blessed | turn down for what lil jon remix |