Quick Browse
Movies
TV shows
Music
Games
Applications
Anime
Other
Facebook
Advertising

Friends
Torrent Download
Movie4u
1337x.to
Torrent Downloads




Verified torrent Pappi Appacha 2010~DVDRIP~Striker~TDA


    Seeders : 2      Leechers : 2
Hash :01096D95CC0BB1B9A696C1D2EB28F078D3937A4D
Added :1 Year+ by striker123Verified torrent uploader in Movies
Size :698.92 MB
Stream :WATCH ONLINE @ Movie4u


Pappi Appacha 2010~DVDRIP~Striker~TDA
Free and Fast Download with Usenet 300GB+ free







Trackers List

Tracker NameLast CheckStatusSeedersLeechers




Torrent File Content (4 files)


Pappi Appacha 2010~DVDRIP~Striker~TDA
     Pappi Appacha 2010~DVDRIP~Striker~TDA.mp4 -
698.26 MB

     TeamTDA.jpg -
681.47 KB

     More Movies.url -
112 bytes

     Tracked By DesiAdda.com.txt -
23 bytes



Description



http://www.pitaara.in/wp-content/uploads/Pappy-Appacha-Dileep2010.jpg


http://www.imagefreeks.com/images/striker/eamtdabanner.jpg


http://www.imagefreeks.com/images/striker/ileinfo.png


[CODE]
General

Format : MPEG-4
Format profile : Base Media
Codec ID : isom
File size : 698 MiB
Duration : 2h 40mn
Overall bit rate : 609 Kbps
Encoded date : UTC 2010-10-09 15:39:37
Tagged date : UTC 2010-10-09 15:39:37


Video
ID : 1
Format : AVC
Format/Info : Advanced Video Codec
Format profile : [email protected]
Format settings, CABAC : Yes
Format settings, ReFrames : 8 frames
Codec ID : avc1
Codec ID/Info : Advanced Video Coding
Duration : 2h 40mn
Bit rate mode : Variable
Bit rate : 541 Kbps
Maximum bit rate : 2 644 Kbps
Width : 640 pixels
Height : 272 pixels
Display aspect ratio : 2.35:1
Frame rate mode : Constant
Frame rate : 23.976 fps
Resolution : 24 bits
Colorimetry : 4:2:0
Scan type : Progressive
Bits/(Pixel*Frame) : 0.130
Stream size : 620 MiB (89%)


Audio
ID : 2
Format : AAC
Format/Info : Advanced Audio Codec
Format version : Version 4
Format profile : LC
Format settings, SBR : No
Codec ID : 40
Duration : 2h 40mn
Bit rate mode : Variable
Bit rate : 63.8 Kbps
Maximum bit rate : 109 Kbps
Channel(s) : 2 channels
Channel positions : L R
Sampling rate : 48.0 KHz
Resolution : 16 bits
Stream size : 73.3 MiB (10%)


Text
ID : 3
Format : Timed text
Codec ID : tx3g
Duration : 2h 40mn
Bit rate mode : Variable
Bit rate : 77 bps
Stream size : 90.6 KiB (0%)



[/CODE]

http://www.imagefreeks.com/images/striker/screens.png


http://www.imagefreeks.com/images/striker/appiappacha2010dvdripstrikertda.jpg


http://www.imagefreeks.com/images/striker/ownload.png

Related torrents

Torrent NameAddedSizeSeedLeechHealth
1 Year+ - in Movies699.22 MB00
Verified torrent
1 Year+ - in Movies699.22 MB12
1 Year+ - in Movies709.68 MB00
1 Good
Verified torrent
1 Year+ - in Movies697.18 MB118
Verified torrent
1 Year+ - in Movies288.34 MB60

Comments (0 Comments)




Please login or create a FREE account to post comments

Latest Searches

| her by monty | Tushy flash brown | metallica unforgiven hq | Kubo And The Two Strings 2016 1080p BluRay x264 DTS JYK mkv | billy name | CineSample | mac cheese 5 | real time with bill maher 2015 20 | gate 0 | aryana starr has a monster booty pir te |