Quick Browse
Movies
TV shows
Music
Games
Applications
Anime
Other
Facebook
Advertising

Friends
Torrent Download
Movie4u
1337x.to
Torrent Downloads




Paranormal.Activity.3..2011.TS.x264.Feel-Free


    Seeders : 0      Leechers : 0
Hash :E682AC2208EE9CE4651966A40E3D99EE0BC9AE53
Added :1 Year+ by dinosaus in Movies
Size :1.41 GB
Stream :WATCH ONLINE @ Movie4u


Paranormal.Activity.3..2011.TS.x264.Feel-Free
Free and Fast Download with Usenet 300GB+ free







Trackers List

Tracker NameLast CheckStatusSeedersLeechers




Torrent File Content (4 files)


Paranormal.Activity.3..2011.TS.x264.Feel-Free
     Paranormal.Activity.3..2011.TS.x264.Feel-Free.mp4 -
1.41 GB

     paranormalactivity3-poster.jpg -
40.79 KB

     Readme First.txt -
1.75 KB

     Torrent downloaded from Extratorrent.com.txt -
171 bytes



Description



Genre:Horror
Language:English
http://www.imdb.com/title/tt1778304/
Source:Russian TS/Reborn/Illuminati/Suckit Thanks!

Format : MPEG-4
Format profile : Base Media
Codec ID : isom
File size : 1.41 GiB
Overall bit rate : 1 741 Kbps

Video
ID : 1
Format : AVC
Format/Info : Advanced Video Codec
Format profile : [email protected]
Format settings, CABAC : Yes
Format settings, ReFrames : 3 frames
Format settings, GOP : M=3, N=15
Codec ID : avc1
Codec ID/Info : Advanced Video Coding
Bit rate mode : Variable
Bit rate : 1 500 Kbps
Maximum bit rate : 9 217 Kbps
Width : 720 pixels
Height : 304 pixels
Display aspect ratio : 2.35:1
Frame rate mode : Constant
Frame rate : 25.000 fps
Color space : YUV
Chroma subsampling : 4:2:0
Bit depth : 8 bits
Scan type : Progressive
Bits/(Pixel*Frame) : 0.274
Stream size : 1.23 GiB (87%)
Writing library : x264

Audio
ID : 2
Format : AAC
Format/Info : Advanced Audio Codec
Format version : Version 4
Format profile : LC
Format settings, SBR : No
Codec ID : 40
Bit rate mode : Variable
Bit rate : 224 Kbps
Maximum bit rate : 283 Kbps
Channel(s) : 2 channels
Channel positions : Front: L R
Sampling rate : 48.0 KHz
Stream size : 186 MiB (13%)


Plot:
In 1988, young sisters Katie and Kristi befriend an invisible entity who resides in their home.

TRAILER:
[embed=youtube]http://www.youtube.com/watch?v=90r3CnPI0AM[/embed]



Greets:

INK,CRYS,IMAGINE,LKRG,FXG,3Li,FLAWL3SS,TA,iLLUSiON,ViSiON,DTRG SAFCuk009,LU,TheFalcon007,MYSTiC,PrisM,Noir,WBZ,LAP,Rx,Kingdom,SAFCuk009+Fabreezy,HDLiTE,TWiZTED,ETRG.ELEKTRI4KA,MAGNAT,CM8
And to all the other p2p grps past and present

Related torrents

Torrent NameAddedSizeSeedLeechHealth
1 Year+ - in Movies701.24 MB2,680473
1 Year+ - in Movies1.1 GB00
1 Year+ - in Movies4.92 GB00
1 Year+ - in Movies1.06 GB00
1 Year+ - in Movies1.02 GB16128

Comments (0 Comments)




Please login or create a FREE account to post comments

Latest Searches

| freddie the dreamers i understand | I Am a Hero 2016 1080p BluRay | karla kushjillian janson | k michelle show | darshana | the go gs | 4 P M kissing you | reed up 2 | 4 P M kissin u | new pack 2016 |