Quick Browse
Movies
TV shows
Music
Games
Applications
Anime
Other
Facebook
Advertising

Friends
Torrent Download
Movie4u
1337x.to
Torrent Downloads




Paranormal Activity 2 2010 DVDSCR XviD TS SCH Team


    Seeders : 3      Leechers : 0
Hash :B2AF1E5DC503D4751FCFBE8418BF76604C8076F4
Added :1 Year+ by trance1Verified torrent uploader in Movies
Size :2.35 GB
Stream :WATCH ONLINE @ Movie4u


Paranormal Activity 2 2010 DVDSCR XviD TS SCH Team
Free and Fast Download with Usenet 300GB+ free







Trackers List

Tracker NameLast CheckStatusSeedersLeechers




Torrent File Content (7 files)


Paranormal Activity 2010 DVDSCR XviD TS SCH Team
    Paranormal Activity 2010 DVDSCR XviD TS SCH-Team
          VIDEO_TS/VTS_01_2.VOB -
1023.97 MB

          VIDEO_TS/VTS_01_1.VOB -
1023.97 MB

          VIDEO_TS/VTS_01_3.VOB -
359.45 MB

          VIDEO_TS/VTS_01_0.BUP -
60 KB

          VIDEO_TS/VTS_01_0.IFO -
60 KB

          VIDEO_TS/VIDEO_TS.IFO -
6 KB

          VIDEO_TS/VIDEO_TS.BUP -
6 KB



Description




General
Complete name :Paranormal Activity 2 2010 DVDSCR SCH-TEAM
Format :TS DVD FOLDER
Format/Info : Audio Video Interleave
File size :2.35 GB
Duration : 1h 24mn
Overall bit rate : 1 528 Kbps
Video #0
Codec ID : XVID
Codec ID/Hint : XviD
Duration : 1h 24mn
Bit rate : 1 390 Kbps
Width : 652 pixels
Height : 352 pixels
Display aspect ratio : 1.852
Frame rate : 25.000 fps
Resolution : 24 bits
Colorimetry : 4:2:0
Scan type : Progressive
Bits/(Pixel*Frame) : 0.242
Stream size : 841 MiB (91%)
Writing library : XviD 1.2.1 (UTC 2008-12-04)
Audio #1
ID : 1
Format : MPEG Audio
Format version : Version 1
Format profile : Layer 3
Codec ID : 55
Codec ID/Hint : MP3
Duration : 1h 24mn
Bit rate mode : Constant
Bit rate : 128 Kbps
Channel(s) : 2 channels
Sampling rate : 48.0 KHz
Resolution : 16 bits
Video delay : 1s 500ms
Stream size : 77.4 MiB (8%)
Alignment : Split accross interleaves
Interleave, duration : 40 ms (1.00 video frame)
Interleave, preload duration : 500 ms

Related torrents

Torrent NameAddedSizeSeedLeechHealth
1 Year+ - in Movies695.17 MB541
1 Comments
1 Bad
1 Year+ - in Movies718.5 MB397
1 Good
1 Year+ - in Movies706.98 MB18182
1 Year+ - in Movies704.74 MB3216
1 Year+ - in Movies1.27 GB255

Comments (1 comment)




trance1
» Torrent Uploader Torrent Uploader

Added 1 Year+
is realy good
Please login or create a FREE account to post comments

Latest Searches

| UFC Fight Night 102 WEB DL | Value Investing From Graham To Buffett | dan thompson outcast original mix mp3 edm rg mousr | sarah castille audiobook | street corner symphonies vol 3 | Tiny Buddhas | Alison tyler your sons a | underworld itunes | recode 3 | the walkind dead 2 temporada |