Quick Browse
Movies
TV shows
Music
Games
Applications
Anime
Other
Facebook
Advertising

Friends
Torrent Download
Movie4u
1337x.to
Torrent Downloads




Verified torrent Paranormal Activity 2010 TS Xvid-CLASSiFiED


    Seeders : 12      Leechers : 1
Hash :613D6AE91207E4CE54A0FA24FB2A25814FA68DA0
Added :1 Year+ by striker123Verified torrent uploader in Movies
Size :805.96 MB
Stream :WATCH ONLINE @ Movie4u


Paranormal Activity 2010 TS Xvid-CLASSiFiED
Free and Fast Download with Usenet 300GB+ free







Trackers List

Tracker NameLast CheckStatusSeedersLeechers




Torrent File Content (1 file)


     Paranormal.Activity.2010.TS - CLASSiFiED.avi -
805.96 MB



Description



http://www.watchparanormalactivity2.org/wp-content/gallery/paranormal-activity-1-photos/photo_01_hires.jpg



[code]Video

ID: 0

Format: MPEG-4 Visual

Format profile: [email protected]

Format settings, BVOP: No

Format settings, QPel: No

Format settings, GMC: No warppoints

Format settings, Matrix: Default (H.263)

Codec ID: XVID

Codec ID/Hint: XviD

Duration: 1h 24mn

Bit rate: 1 194 Kbps

Width: 720 pixels

Height: 368 pixels

Display aspect ratio: 1.957

Frame rate: 23.976 fps

Color space: YUV

Chroma subsampling: 4:2:0

Bit depth: 8 bits

Scan type: Progressive

Bits/(Pixel*Frame): 0.188

Stream size: 721 MiB (89%)

Writing library: XviD 1.2.1 (UTC 2008-12-04)



Audio

ID: 1

Format: MPEG Audio

Format version: Version 1

Format profile: Layer 3

Mode: Joint stereo

Mode extension: MS Stereo

Codec ID: 55

Codec ID/Hint: MP3

Duration: 1h 24mn

Bit rate mode: Constant

Bit rate: 128 Kbps

Channel(s): 2 channels

Sampling rate: 44.1 KHz

Stream size: 77.4 MiB (10%)

Alignment: Aligned on interleaves

Interleave, duration: 26 ms (0.63 video frame)

Interleave, preload duration: 522 ms



Release Notes:

Thanx to IMAGiNE and LKRG for the audio and ELEKTRI4KA for the video. Beginning

used cam audio, as the line was missing 3 1/2 minutes. Filtered the cam audio

as well as the colors, brightness ect. Enjoi [/code]

http://img716.imageshack.us/img716/9894/18325224.jpg

http://img530.imageshack.us/img530/3748/57674251.jpg

http://img227.imageshack.us/img227/9462/26823501.jpg

Related torrents

Torrent NameAddedSizeSeedLeechHealth
1 Year+ - in Movies823.69 MB446
1 Year+ - in Movies823.68 MB8018
1 Year+ - in Movies1.09 GB12
1 Year+ - in Movies824.8 MB163
1 Year+ - in Movies826.12 MB40

Comments (0 Comments)




Please login or create a FREE account to post comments

Latest Searches

| jinping china ceo | sexy s threesome | santos aventura | public spaces | 2016 round Brown xxx | I AM SASHA FIERCE Deluxe | sully 2016 mp3 | WhippedAss Julia Ann | sleepy hollow s02e02 x264 | Modern combat 4 full download |