Quick Browse
Movies
TV shows
Music
Games
Applications
Anime
Other
Facebook
Advertising

Friends
Torrent Download
Movie4u
1337x.to
Torrent Downloads




Verified torrent Paranormal Activity 3 2011 720p TS XviD 5 1 AC3 - MiSTERE


    Seeders : 0      Leechers : 0

Trackers List

Tracker NameLast CheckStatusSeedersLeechers




Torrent File Content (8 files)


Paranormal Activity 3 2011 720p TS XviD 5.1 AC3 - MiSTERE
     HDSceneRG.txt -
115 bytes

     Paranormal Activity 3 2011 720p TS XviD 5.1 AC3 - MiSTERE.avi -
2.13 GB

     Paranormal Activity 3 2011 720p TS XviD 5.1 AC3 - MiSTERE.nfo -
2.24 KB

     Torrent downloaded from Demonoid.me.txt -
46 bytes

     Torrent downloaded from Suprnova.me.txt -
42 bytes

     att-networks.com.txt -
39 bytes

     sample.avi -
45.55 MB

     sceneunderground.org.txt -
77 bytes



Description



http://img819.imageshack.us/img819/5742/paraj.jpg

[code]
Paranormal Activity 3 2011 720p TS XviD 5.1 AC3 - MiSTERE

http://www.imdb.com/title/tt1778304/

Video
ID : 0
Format : MPEG-4 Visual
Format profile : Advanced [email protected]
Format settings, BVOP : 2
Format settings, QPel : No
Format settings, GMC : No warppoints
Format settings, Matrix : Default (H.263)
Muxing mode : Packed bitstream
Codec ID : XVID
Codec ID/Hint : XviD
Duration : 1h 18mn
Bit rate : 3 407 Kbps
Width : 1 280 pixels
Height : 608 pixels
Display aspect ratio : 2.2:1
Frame rate : 25.000 fps
Color space : YUV
Chroma subsampling : 4:2:0
Bit depth : 8 bits
Scan type : Progressive
Compression mode : Lossy
Bits/(Pixel*Frame) : 0.175
Stream size : 1.87 GiB (88%)
Writing library : XviD 64

Audio
ID : 1
Format : AC-3
Format/Info : Audio Coding 3
Mode extension : CM (complete main)
Codec ID : 2000
Duration : 1h 18mn
Bit rate mode : Constant
Bit rate : 448 Kbps
Channel(s) : 6 channels
Channel positions : Front: L C R, Side: L R, LFE
Sampling rate : 48.0 KHz
Bit depth : 16 bits
Compression mode : Lossy
Stream size : 252 MiB (12%)
Alignment : Aligned on interleaves
Interleave, duration : 40 ms (1.00 video frame)

Plot:
In 1988, young sisters Katie and Kristi befriend an invisible entity who resides in their home.

Thanks to TNZ for the source files
Sharpened and tweaked RGB
Overall not a bad video, much better
than V1
[/code]
Screens:
http://img155.imageshack.us/img155/6227/87408856.png

http://img263.imageshack.us/img263/7871/71887106.png

http://img41.imageshack.us/img41/8003/72616788.jpg

http://img3.imageshack.us/img3/9131/50329863.png

Related torrents

Torrent NameAddedSizeSeedLeechHealth
1 Year+ - in Movies406.43 MB13
1 Year+ - in Movies1.14 GB03
1 Year+ - in Movies406.43 MB00
1 Year+ - in Movies406.43 MB00
1 Year+ - in Movies406.43 MB18

Comments (0 Comments)




Please login or create a FREE account to post comments

Latest Searches

| late apologize | THE CHONICLES | horrible bosses 2 2014 hc webrip xvid mp3 rarbg | skyla novea bra collector | Pretty psycho | 5 starrr | hungarian honeys | Ebody | yg red Friday | Passion hd Bailey Brooks Naked Vacation Night In 720p NEW May 11 2016 |