Quick Browse
Movies
TV shows
Music
Games
Applications
Anime
Other
Facebook
Friends
Torrent Download
Movie4u
1337x.to
Torrent Downloads

Verified torrent Paranormal Activity 3 2011 R5 LiNE READNFO XViD-IMAGiNE


    Seeders : 26      Leechers : 33

Trackers List

Tracker NameLast CheckStatusSeedersLeechers




Torrent File Content (8 files)


Paranormal Activity 3 2011 R5 LiNE READNFO XViD-IMAGiNE
     att-networks.com.txt -
39 bytes

     HDSceneRG.txt -
121 bytes

     Paranormal Activity 3 2011 R5 LiNE READNFO XViD-IMAGiNE.avi -
824.42 MB

     Paranormal Activity 3 2011 R5 LiNE READNFO XViD-IMAGiNE.nfo -
2.98 KB

     sceneunderground.org.txt -
77 bytes

     Torrent downloaded from Demonoid.me.txt -
46 bytes

     Torrent downloaded from Suprnova.me.txt -
42 bytes

     Torrent Seeded & Tracked by Novalayer.com.txt -
167 bytes



Description



Paranormal Activity 3 2011 R5 LiNE READNFO XViD-IMAGiNE
Description

Title: Paranormal Activity 3 2011 R5 LiNE READNFO XViD-IMAGiNE
Format: Xvid
Language: English
Subtitles: No
Sample: Yes
Imdb: http://www.imdb.com/title/tt1778304/

Plot:
In 1988, young sisters Katie and Kristi befriend an
invisible entity who resides in their home.


Sources:
Video - Relizlab Files - As Always Many Thanks
Audio - MiSTERE - You Know Already Big Thanks


Release Notes:
Ok Here we are bringing you all another release and this time its,
Paranormal Activity 3 R5 2011
First of all we ripped the source files (Big Thanks to the guys at Relizlab)
We did our usually on that Crop, sharpen, play with contrast and RGB Levals
and alter'd the Sats
after that we took the very nice line audio from our good friends MiSTERE
and filter'd before mux'in back to our own encode
So there you have it a nice R5 with very nice LiNE audio for every 1 to

Enjoy

iNFO:

Video
Format : AVI
Format/Info : Audio Video Interleave
File size : 1.08 GiB
Duration : 1h 18mn
Overall bit rate : 1 960 Kbps

ID : 0
Format : MPEG-4 Visual
Format profile : Advanced [email protected]
Format settings, BVOP : 2
Format settings, QPel : No
Format settings, GMC : No warppoints
Format settings, Matrix : Default (H.263)
Codec ID : XVID
Codec ID/Hint : XviD
Duration : 1h 18mn
Bit rate : 1 822 Kbps
Width : 720 pixels
Height : 384 pixels
Display aspect ratio : 1.875
Frame rate : 25.000 fps
Color space : YUV
Chroma subsampling : 4:2:0
Bit depth : 8 bits
Scan type : Progressive
Compression mode : Lossy
Bits/(Pixel*Frame) : 0.264
Stream size : 1 024 MiB (93%)

Audio:
ID : 1
Format : MPEG Audio
Format version : Version 1
Format profile : Layer 3
Mode : Joint stereo
Mode extension : MS Stereo
Codec ID : 55
Codec ID/Hint : MP3
Duration : 1h 18mn
Bit rate mode : Constant
Bit rate : 128 Kbps
Channel(s) : 2 channels
Sampling rate : 44.1 KHz
Compression mode : Lossy
Stream size : 71.9 MiB (7%)
Alignment : Aligned on interleaves
Interleave, duration : 40 ms (1.00 video frame)
Writing library : LAME3.98r
Encoding settings : -m j -V 4 -q 2 -lowpass 17 -b 128


http://shareimage.org/images/j9mkhiz4voaeavluhg.jpg


http://shareimage.org/images/pz3n315p48eso80b3c13.jpg


http://shareimage.org/images/pz3n315p48eso80b3c13.jpg


http://shareimage.org/images/c86byqe1feekmz37h4kl.jpg


Related torrents

Torrent NameAddedSizeSeedLeechHealth
1 Year+ - in Movies1.68 GB01
1 Year+ - in Movies1.37 GB00
1 Year+ - in Movies780.94 MB00
1 Bad
Verified torrent
1 Year+ - in Movies830.26 MB141
Verified torrent
1 Year+ - in Movies821.5 MB1543

Comments (0 Comments)




Please login or create a FREE account to post comments

Latest Searches

| The Walking Dead Season 7 Episode 13 | ExploitedCollegeGirls 19 Years Old Super Hot Sexy Kylie | m i not pretty enough | the cars flac | mucho que te quiero | 4 minutes ray j | Sweet Like Candy SPLIT | 239 music | conrad remix | sex yu |