Quick Browse
Movies
TV shows
Music
Games
Applications
Anime
Other
Facebook
Advertising

Friends
Torrent Download
Movie4u
1337x.to
Torrent Downloads




Verified torrent Paranormal Activity 3 2011 TS XviD - VISUALiSE


    Seeders : 652      Leechers : 42
Hash :0BCF600C9B65FA27407DBD7DF66247E342867E30
Added :1 Year+ by memory100Verified torrent uploader in Movies
Size :1.1 GB
Stream :WATCH ONLINE @ Movie4u


Paranormal Activity 3 2011 TS XviD - VISUALiSE
Free and Fast Download with Usenet 300GB+ free







Trackers List

Tracker NameLast CheckStatusSeedersLeechers




Torrent File Content (8 files)


Paranormal Activity 3 2011 TS XviD - VISUALiSE
     HDSceneRG.txt -
115 bytes

     Paranormal Activity 3 2011 TS XviD - VISUALiSE.avi -
1.08 GB

     Paranormal Activity 3 2011 TS XviD - VISUALiSE.nfo -
4.05 KB

     Torrent downloaded from Demonoid.me.txt -
46 bytes

     Torrent downloaded from Suprnova.me.txt -
42 bytes

     att-networks.com.txt -
39 bytes

     sceneunderground.org.txt -
77 bytes

     vlc-record-2011-10-23-18h21m37s-Paranormal Activity 3 2011 TS XviD - VISUALiSE.avi-.avi -
29.35 MB



Description



http://img839.imageshack.us/img839/729/activ.jpg

[code]
Paranormal Activity 3 2011 TS XviD - VISUALiSE
Description

Title: Paranormal Activity 3 2011 TS XviD - VISUALiSE
Format: Xvid
Language: English
Subtitles: No
Sample: Yes
Imdb: http://www.imdb.com/title/tt1778304/

Plot:
In 1988, young sisters Katie and Kristi befriend an
invisible entity who resides in their home.


Sources:
Video - Relizlab Files - As Always Many Thanks
Audio - MiSTERE - You Know Already Big Thanks


Release Notes:
Ok Here we are bringing you all another release and this time its,
Paranormal Activity 3 2011 TS XviD - VISUALiSE
First of all we ripped the source files (Big Thanks to the guys at Relizlab)
We did our usually on that Crop, sharpen, play with contrast and RGB Levals
and alter'd the Sats
after that we took the very nice line audio from our good friends MiSTERE
and filter'd before mux'in back to our own encode
So there you have it a nice TS with very nice LiNE audio for every 1 to

Enjoy

iNFO:

Video
Format : AVI
Format/Info : Audio Video Interleave
File size : 1.08 GiB
Duration : 1h 18mn
Overall bit rate : 1 960 Kbps

ID : 0
Format : MPEG-4 Visual
Format profile : Advanced [email protected]
Format settings, BVOP : 2
Format settings, QPel : No
Format settings, GMC : No warppoints
Format settings, Matrix : Default (H.263)
Codec ID : XVID
Codec ID/Hint : XviD
Duration : 1h 18mn
Bit rate : 1 822 Kbps
Width : 720 pixels
Height : 384 pixels
Display aspect ratio : 1.875
Frame rate : 25.000 fps
Color space : YUV
Chroma subsampling : 4:2:0
Bit depth : 8 bits
Scan type : Progressive
Compression mode : Lossy
Bits/(Pixel*Frame) : 0.264
Stream size : 1 024 MiB (93%)

Audio:
ID : 1
Format : MPEG Audio
Format version : Version 1
Format profile : Layer 3
Mode : Joint stereo
Mode extension : MS Stereo
Codec ID : 55
Codec ID/Hint : MP3
Duration : 1h 18mn
Bit rate mode : Constant
Bit rate : 128 Kbps
Channel(s) : 2 channels
Sampling rate : 44.1 KHz
Compression mode : Lossy
Stream size : 71.9 MiB (7%)
Alignment : Aligned on interleaves
Interleave, duration : 40 ms (1.00 video frame)
Writing library : LAME3.98r
Encoding settings : -m j -V 4 -q 2 -lowpass 17 -b 128
[/code]
Screens:
http://img9.imageshack.us/img9/863/70658076.png

http://img841.imageshack.us/img841/9819/67009756.png

http://img708.imageshack.us/img708/3789/19458933.png

http://img64.imageshack.us/img64/1646/46555678.png

Related torrents

Torrent NameAddedSizeSeedLeechHealth
1 Year+ - in Movies1.1 GB00
1 Year+ - in Movies1.08 GB39
1 Year+ - in Movies1.1 GB2297
1 Year+ - in Movies1.1 GB01
1 Year+ - in Movies1.1 GB00

Comments (0 Comments)




Please login or create a FREE account to post comments

Latest Searches

| theatre pain | l heart i surrender | T Stafford | The Moment of Truth 1965 | FantASStic DP 5 | the red goddess | sexxxotica 1 | Santa Clause 3 The Escape Clause 2006 720p BluRay x264 AC3 NoHaTE | kane brown kane brown 2016 | New hunger |