Quick Browse
Movies
TV shows
Music
Games
Applications
Anime
Other
Facebook
Advertising

Friends
Torrent Download
Movie4u
1337x.to
Torrent Downloads




Verified torrent Passed The Door Of Darkness [DVD5] [ENG] [AC3] [Hannspree]


    Seeders : 3      Leechers : 2

Trackers List

Tracker NameLast CheckStatusSeedersLeechers




Torrent File Content (13 files)


Passed The Door Of Darkness
    Passed The Door Of Darkness [DVD]
          VIDEO_TS/VIDEO_TS.BUP -
12 KB

          VIDEO_TS/VIDEO_TS.IFO -
12 KB

          VIDEO_TS/VIDEO_TS.VOB -
58 KB

          VIDEO_TS/VTS_01_0.BUP -
68 KB

          VIDEO_TS/VTS_01_0.IFO -
68 KB

          VIDEO_TS/VTS_01_0.VOB -
58 KB

          VIDEO_TS/VTS_01_1.VOB -
1023.97 MB

          VIDEO_TS/VTS_01_2.VOB -
16.7 MB

    Passed The Door Of Darkness [Images]
          Passed The Door Of Darkness [Cover].jpg -
95.76 KB

          Passed The Door Of Darkness [Disc].jpg -
63.59 KB

          Passed The Door Of Darkness [Screens].jpg -
124.89 KB

     Passed The Door Of Darkness.NFO -
3.64 KB

     Torrent downloaded from 1337x.org.txt -
44 bytes



Description



=====================================================================================
[ Another free, high quality, ready to burn DVD I will be adding new torrents on a daily basis - Remember to seed ]
=====================================================================================
MOVIE TITLE: Passed The Door Of Darkness
LANGUAGE: English
MOVIE SUBS: No
BURN TESTED: Yes
FORMAT: Pal
GENRE: Thriller
RUNTIME: 100 Minutes
YEAR: 2008
IMDB LINK: http://www.imdb.com/title/tt0949835/
=====================================================================================
MOVIE DESC:

Passed the Door of Darkness. Two young children dead, floating face down in their family's bathtub. Their mother, shot in the back of the head, lies next to the tub in a pool of her own blood. On the floor slumped against a blood covered wall is her husband, dead of a self-inflicted gunshot wound to the head. For rookie Homicide Detective Chris Malloy this grisly scene is more than he expected to see in his first week of working the graveyard shift. For his partner, grizzled yet poetic Detective Murphy MacCasey, this is but one tragedy among countless in his fifteen years in homicide. They haven't seen anything yet.
=====================================================================================
MOVIE SPECS:

GENERAL:
Complete name : Passed The Door Of Darkness [DVD5]
Format : MPEG-PS
File size : 1.01 GB
Duration : 100 Minutes
Overall bit rate : 1 449 Kbps

VIDEO:
ID : 224 (0xE0)
Format : MPEG Video
Format version : Version 2
Format profile : [email protected]
Format settings, BVOP : Yes
Format settings, Matrix : Default
Duration : 100 Minutes
Bit rate mode : Variable
Bit rate : 1 228 Kbps
Nominal bit rate : 9 608 Kbps
Width : 720 pixels
Height : 576 pixels
Display aspect ratio : 16:9
Frame rate : 25.000 fps
Standard : PAL
Color space : YUV
Chroma subsampling : 4:2:0
Bit depth : 8 bits
Scan type : Progressive
Bits/(Pixel*Frame) : 0.118
Stream size : 868 MiB (85%)

AUDIO:
ID : 128 (0x80)
Format : AC-3
Format/Info : Audio Coding 3
Mode extension : CM (complete main)
Duration : 100 Minutes
Bit rate mode : Constant
Bit rate : 192 Kbps
Channel(s) : 2 channels
Channel positions : Front: L R
Sampling rate : 48.0 KHz
Stream size : 136 MiB (13%)
=====================================================================================
TRACKERS:
http://exodus.1337x.org/announce
http://tracker.ilibr.org/announce
http://tpb.tracker.prq.to/announce
http://red.tracker.prq.to/announce
http://gemini.tracker.prq.to/announce
http://tracker.openbittorrent.com/announce
http://11.rarbg.com/announce
=====================================================================================
[FOOT NOTE]
If you are happy with this download, it would be nice to hear your views or comments that you might have. Enjoy
=====================================================================================
Screen Shot Of Passed The Door Of Darkness
=====================================================================================
http://leetpic.com/images/passedthed.jpg

=====================================================================================
http://torrent-stats.info/4d3d/458ebe1f.png

=====================================================================================

Related torrents

Torrent NameAddedSizeSeedLeechHealth
Verified torrent
1 Year+ - in Movies1.16 GB00
1 Year+ - in Movies801.16 MB7510
1 Year+ - in Movies801.15 MB148
1 Year+ - in Movies666.49 MB645
Verified torrent
1 Year+ - in Movies869.42 MB55

Comments (0 Comments)




Please login or create a FREE account to post comments

Latest Searches

| PS2 2005 | big booty 5 | young m a eats | 11 UFO books ePub Retail | removal security | BABYMETAL Discography | Miss why | kombat theme | yg tory lanez me | stone 2008 |