Quick Browse
Movies
TV shows
Music
Games
Applications
Anime
Other
Facebook
Advertising

Friends
Torrent Download
Movie4u
1337x.to
Torrent Downloads




Verified torrent Paul (2011) DVDRip XviD-MAXSPEED


    Seeders : 1159      Leechers : 236
Hash :8FB7B1F4984AB6E0746B43D2B82D4ED8102984D5
Added :1 Year+ by piratepediaVerified torrent uploader in Movies
Size :1.47 GB
Stream :WATCH ONLINE @ Movie4u


Paul (2011) DVDRip XviD-MAXSPEED
Free and Fast Download with Usenet 300GB+ free







Trackers List

Tracker NameLast CheckStatusSeedersLeechers




Torrent File Content (8 files)


Paul (2011) DVDRip XviD-MAXSPEED
     Paul (2011) DVDRip XviD-MAXSPEED www.torentz.3xforum.ro.avi -
1.46 GB

     sample.avi -
7.48 MB

     screencaps.jpeg -
551.55 KB

     Paul (2011) DVDRip XviD-MAXSPEED.nfo -
2.68 KB

     Torrent downloaded from Demonoid.me.txt -
46 bytes

     Torrent downloaded from Extratorrent.com.txt -
40 bytes

     Torrent downloaded from Rarbg.com.txt -
33 bytes

     Torrent downloaded from h33t.com.txt -
32 bytes



Description



http://leetleech.org/images/13358221760529476107.jpg


Screens:

http://leetleech.org/images/17204703204942791030.jpg

http://leetleech.org/images/60339053542171497391.jpg

http://leetleech.org/images/60367864716741922018.jpg

http://leetleech.org/images/14884722625286603256.jpg


Alternative:

[code]http://www.postimg.com/image/39000/photo-38385.jpg
http://www.postimg.com/image/39000/photo-38386.jpg
http://www.postimg.com/image/39000/photo-38387.jpg
http://www.postimg.com/image/39000/photo-38388.jpg[/code]

ScreenCaps:

http://www.postimg.com/39000/photo-38389.jpg


[code]Paul (2011) DVDRip XviD-MAXSPEED
Format : AVI
Format/Info : Audio Video Interleave
Format profile : OpenDML
File size : 1.46 GiB
Duration : 1h 49mn
Overall bit rate : 1 918 Kbps
Writing application : VirtualDubMod 1.5.10.2 (build 2542/release)
Writing library : VirtualDubMod build 2542/release
Original source form : MAX TORRENTZ
Copyright : SIGISMUNT

Video
ID : 0
Format : MPEG-4 Visual
Format profile : [email protected]
Format settings, BVOP : Yes
Format settings, QPel : No
Format settings, GMC : No warppoints
Format settings, Matrix : Default (H.263)
Codec ID : XVID
Codec ID/Hint : XviD
Duration : 1h 49mn
Bit rate : 1 465 Kbps
Width : 720 pixels
Height : 304 pixels
Display aspect ratio : 2.35:1
Frame rate : 23.976 fps
Resolution : 24 bits
Colorimetry : 4:2:0
Scan type : Progressive
Bits/(Pixel*Frame) : 0.279
Stream size : 1.12 GiB (76%)
Writing library : XviD 1.2.1 (UTC 2008-12-04)

Audio
ID : 1
Format : AC-3
Format/Info : Audio Coding 3
Codec ID : 2000
Duration : 1h 49mn
Bit rate mode : Constant
Bit rate : 448 Kbps
Channel(s) : 6 channels
Channel positions : Front: L C R, Surround: L R, LFE
Sampling rate : 48.0 KHz
Stream size : 350 MiB (23%)
Alignment : Aligned on interleaves
Interleave, duration : 64 ms (1.53 video frames)
Interleave, preload duration : 192 ms
Title : English

Source: AVCHD (perfect a/v/sync quality , sample included)
This torrent is not seedbox supported , please seed it to the MAX

How To Get Your Maxspeed (uTorrent)

Torrent Client - Preferences - Bandwidth - Number of connections - Set aprox. 500 for each
Torrent Client - Preferences - BiTorrent - Protocol Encryption - Forced
Bandwidth Allocation - High (Set download/upload limit - Unlimited)
Stop Other Active Torrents - Start downloading and wait for connections.
Enjoy and Seed for at least 1:1 ratio. Don't forget to say thanks/leave reviews.
Before downloading you should check/google search sample "release name""sample".
Greets to all actual/future p2p/scene QUALITY groups and affiliate websites.
Don't trust IMDb robot or bad ratings,always watch some trailers first.
Ignore stupid comments/fake/mislabeled/no-DVDrips/CAM/TS/RAR uploads.
Please spread this release/torrent to your friends/forums/etc.
If you need translation subs visit some subtitles sites.
Report if you see online streaming or other spam links.
Recommended movie player VLC PLAYER.
[/code]

Related torrents

Torrent NameAddedSizeSeedLeechHealth
1 Year+ - in Movies1.47 GB04
6 months ago - in Movies769.23 MB00
6 months ago - in Movies769.31 MB00
6 months ago - in Movies1.52 GB00
6 months ago - in Movies1.52 GB00

Comments (0 Comments)




Please login or create a FREE account to post comments

Latest Searches

| ne yo and jamie foxx | the first 48 s15e1 | maroon 5sugar | Shadow Warrior 1980 | RnB album NOW | book of musical | FR David | anal inse | hack slots | Lubed a Alex Grey a Lubed Roller Skater |