Quick Browse
Movies
TV shows
Music
Games
Applications
Anime
Other
Facebook
Advertising

Friends
Torrent Download
Movie4u
1337x.to
Torrent Downloads




Verified torrent Paul 2011 BRRip EXTENDED 720p H264-MXMG


    Seeders : 0      Leechers : 0
Hash :21C97EDAB2C7F4E6C14660AE4FC1C5FF3BD62873
Added :1 Year+ by MXMGVerified torrent uploader in Movies
Size :2.2 GB
Stream :WATCH ONLINE @ Movie4u


Paul 2011 BRRip EXTENDED 720p H264-MXMG
Free and Fast Download with Usenet 300GB+ free







Trackers List

Tracker NameLast CheckStatusSeedersLeechers
udp://tracker.coppersurfer.tk:8029 days agosuccess00
udp://tracker.ilibr.org:6969/announce29 days agosuccess00
http://torrent-tracker.ru/announce.php29 days agosuccess00
udp://ipv4.tracker.harry.lu:80/announce29 days agosuccess00
udp://9.rarbg.com:2710/announce29 days agosuccess00
http://tracker.trackerfix.com/announce29 days agosuccess00




Torrent File Content (11 files)


Paul 2011 BRRip EXTENDED 720p H264-MXMG
    Sample
          Paul(01h17m04s-01h18m04s).mp4 -
16.76 MB

    Screenshots
          Paul.mp4_snapshot_00.50.53_[2011.06.17_15.57.59].png -
445.39 KB

          Paul.mp4_snapshot_01.17.53_[2011.06.17_16.05.21].png -
377.05 KB

          Paul.mp4_snapshot_00.20.35_[2011.06.17_15.54.36].png -
206.44 KB

          Paul.mp4_snapshot_01.34.14_[2011.06.17_16.07.07].png -
166.13 KB

     Paul.mp4 -
2.19 GB

     Vietnamese.srt -
223.24 KB

     English.srt -
134.1 KB

     Farsi.srt -
111.57 KB

     Torrent downloaded from Demonoid.me.txt -
46 bytes

     Torrent downloaded from Silvertorrents.me.txt -
41 bytes



Description



http://img339.imageshack.us/img339/5366/201111233040.png



[code]iMDB................................: http://www.imdb.com/title/tt1092026/


Plot :
Simon Pegg and Nick Frost (Hot Fuzz, Shaun of the Dead) reunite for the comedy adventure Paul as two sci-fi geeks whose pilgrimage takes them to America's UFO heartland. While there, they accidentally meet an alien who brings them on an insane road trip that alters their universe forever. For the past 60 years, an alien named Paul (voiced by Seth Rogen) has been hanging out at a top-secret military base. When he discovers he's been taken prisoner, the space-traveling smart ass decides to escape the compound and hop on the first vehicle out of town-a rented RV containing Earthlings Graeme Willy (Pegg) and Clive Gollings (Frost). Chased by federal agents and the fanatical father of a young woman that they accidentally kidnap, Graeme and Clive hatch a fumbling escape plan to return Paul to his mother ship. And as two nerds struggle to help, one little green man might just take his fellow outcasts from misfits to intergalactic heroes...



General
Format : MPEG-4
File size : 2.19 GiB
Duration : 1h 49mn
Overall bit rate : 2 863 Kbps


Video
Format/Info : Advanced Video Codec
Format profile : [email protected]
Format settings, CABAC : Yes
Format settings, ReFrames : 4 frames
Format settings, GOP : M=4, N=41
Codec ID/Info : Advanced Video Coding
Duration : 1h 49mn
Bit rate mode : Variable
Bit rate : 2 534 Kbps
Maximum bit rate : 13.4 Mbps
Width : 1 280 pixels
Height : 544 pixels
Display aspect ratio : 2.35:1
Frame rate mode : Constant
Frame rate : 23.976 fps
Color space : YUV
Chroma subsampling : 4:2:0
Bit depth : 8 bits
Scan type : Progressive
Bits/(Pixel*Frame) : 0.152
Stream size : 1.93 GiB (88%)
Writing library : x264 core 115 r1995 c1e60b9


Audio
Format : AAC
Format/Info : Advanced Audio Codec
Duration : 1h 49mn
Bit rate mode : Variable
Bit rate : 327 Kbps
Maximum bit rate : 414 Kbps
Channel(s) : 6 channels
Channel positions : Front: L C R, Side: L R, LFE
Sampling rate : 48.0 KHz
Compression mode : Lossy
Stream size : 256 MiB (11%)
Language : English



Subtitles : English/Farsi/Vietnamese
Sample : Included
[/code]


http://img850.imageshack.us/img850/9084/paulmp4snapshot00505320.png

http://img821.imageshack.us/img821/7049/paulmp4snapshot00203520.png

http://img17.imageshack.us/img17/6357/paulmp4snapshot01341420.png

http://img863.imageshack.us/img863/8337/paulmp4snapshot01175320.png




[code]Trackers :
http://inferno.demonoid.me:3393/announce
http://fr33dom.h33t.com:3310/announce
http://nemesis.1337x.org/announce
http://genesis.1337x.org:1337/announce
[/code]


[code]
Feel free to visit and select your range and suite of seedboxes and hosting plans.
Recomended by MXMG as these servers seed for your Dowloading @ 25MB/s
http://www.chociz.com/

^COMPATiBLE MODES.......: XBOX-360/PSP/PS3/WDTV

FiND THE GENUiNE MXMG RELEASES @ TORRENTSTATE
HiGHEST QUALiTY iN COMFORTABLE SiZE ...
[/code]

Related torrents

Torrent NameAddedSizeSeedLeechHealth
Verified torrent
1 Year+ - in Movies1.48 GB14
1 Year+ - in Movies683.33 MB165
Verified torrent
1 Year+ - in Movies2.65 GB11
1 Year+ - in Movies2.15 GB160
1 Year+ - in Movies1.01 GB113

Comments (0 Comments)




Please login or create a FREE account to post comments

Latest Searches

| i love you may | DirtyMasseur Keisha Grey Slutty Sitter XXX x264 | the young pop e | this is not a love song daddy | my mom interracial | crush 0 | tech house continuous | s ride a cock | beard charles history of the united states volume 2 full zip file 64 kb mp3 rar | office win10 |