Quick Browse
Movies
TV shows
Music
Games
Applications
Anime
Other
Facebook
Advertising

Friends
Torrent Download
Movie4u
1337x.to
Torrent Downloads




Paul McCartney's Standing Stone(1997)[FLAC][H33T][Naughty Knights]


    Seeders : 23      Leechers : 24

Trackers List

Tracker NameLast CheckStatusSeedersLeechers




Torrent File Content (24 files)


Paul McCartney's Standing Stone(1997)[FLAC][H33T][Naughty Knights]
     Standing Stone Desc.txt -
1.53 KB

     standing stone mediainfo.txt -
18.37 KB

     Standing Stone.log -
5.56 KB

     StandingStoneCover.jpg -
14 KB

     Track01.flac -
18.85 MB

     Track02.flac -
33.97 MB

     Track03.flac -
14.93 MB

     Track04.flac -
12.86 MB

     Track05.flac -
8.41 MB

     Track06.flac -
16.58 MB

     Track07.flac -
24.16 MB

     Track08.flac -
9.09 MB

     Track09.flac -
15.59 MB

     Track10.flac -
8.09 MB

     Track11.flac -
14.74 MB

     Track12.flac -
7.74 MB

     Track13.flac -
27.06 MB

     Track14.flac -
21.62 MB

     Track15.flac -
15.22 MB

     Track16.flac -
19.36 MB

     Track17.flac -
7.98 MB

     Track18.flac -
12.54 MB

     Track19.flac -
26.77 MB

     tracked_by_h33t_com.txt -
23 bytes



Description



*************************************
* IF.YOU.ENJOYED.THANK.ME.BY.SEEDING

I.DO.NOT.ALWAYS.READ.COMMENTS.

Request reseed at : www.h33tfr33sp33k.h33t.com/
---------------------------------------------
Paul McCartney's Standing Stone(1997)[FLAC][H33T][Naughty Knights]
---------------------------------------------
Wiki info: [url]http://en.wikipedia.org/wiki/Paul_McCartney%27s_Standing_Stone[/url]
---------------------------------------------
http://i248.photobucket.com/albums/gg184/NaughtyKnights1/SSC.jpg

---------------------------------------------
Playlist:
All pieces by Paul McCartney.

Movement I - After heavy light years
"Fire/Rain" Allegro energico – 4:30
"Cell Growth" Semplice – 8:30
"'Human' Theme" Maestoso – 3:36

Movement II - He awoke startled
"Meditation" Contemplativo – 3:57
"Crystal Ship" Con moto scherzando – 2:02
"Sea Voyage" Pulsating, with cool jazz feel – 3:39
"Lost At Sea" Sognando – 4:37
"Release" Allegro con spirito – 1:54

Movement III - Subtle colours merged soft contours
"Safe Haven/Standing Stone" Pastorale con moto – 4:11
"Peaceful moment" Andante tranquillo – 2:09
"Messenger" Energico – 3:35
"Lament" Lamentoso – 2:26
"Trance" Misterioso – 5:32
"Eclipse" Eroico – 4:57

Movement IV - Strings pluck, horns blow, drums beat
"Glory Tales" Trionfale – 2:40
"Fugal Celebration" L'istesso tempo. Fresco – 4:25
"Rustic Dance" Rustico – 2:00
"Love Duet" Andante intimo – 3:43
"Celebration" Andante – 6:15
-----------------------------------------
Tracker ......: http://www.h33t.com:3310/announce
Hash : 942DA5A265FA2D3CEA1599D4D56F833657C11B45
enjoy & please seed
-----------------------------------------
Technical Data:
------------------------------------------

Exact Audio Copy V0.99 prebeta 4 from 23. January 2008

EAC extraction logfile from 16. March 2009, 15:14

Unknown Artist / Unknown Title

Used drive : TSSTcorpCDDVDW TS-H653N Adapter: 2 ID: 1

Read mode : Secure
Utilize accurate stream : Yes
Defeat audio cache : No
Make use of C2 pointers : No

Combined read/write offset correction : 0
Overread into Lead-In and Lead-Out : No
Fill up missing offset samples with silence : Yes
Delete leading and trailing silent blocks : No
Null samples used in CRC calculations : No
Used interface : Native Win32 interface for Win NT & 2000
Gap handling : Not detected, thus appended to previous track

Used output format : User Defined Encoder
Selected bitrate : 768 kBit/s
Quality : High
Add ID3 tag : No
Command line compressor : C:Program FilesExact Audio CopyFLACFLAC.EXE
Additional command line options : -6 -V -T "ARTIST=%a" -T "TITLE=%t" -T "ALBUM=%g" -T

"DATE=%y" -T "TRACKNUMBER=%n" -T "GENRE=%m" -T "COMMENT=%e" %s -o %d


TOC of the extracted CD

Track | Start | Length | Start sector | End sector
---------------------------------------------------------
1 | 0:00.00 | 4:29.32 | 0 | 20206
2 | 4:29.32 | 8:30.53 | 20207 | 58509
3 | 13:00.10 | 3:36.22 | 58510 | 74731
4 | 16:36.32 | 3:57.73 | 74732 | 92579
5 | 20:34.30 | 2:02.37 | 92580 | 101766
6 | 22:36.67 | 3:39.63 | 101767 | 118254
7 | 26:16.55 | 4:37.60 | 118255 | 139089
8 | 30:54.40 | 1:54.15 | 139090 | 147654
9 | 32:48.55 | 4:11.45 | 147655 | 166524
10 | 37:00.25 | 2:09.00 | 166525 | 176199
11 | 39:09.25 | 3:35.50 | 176200 | 192374
12 | 42:45.00 | 2:26.12 | 192375 | 203336
13 | 45:11.12 | 5:32.08 | 203337 | 228244
14 | 50:43.20 | 4:57.27 | 228245 | 250546
15 | 55:40.47 | 2:40.05 | 250547 | 262551
16 | 58:20.52 | 4:25.13 | 262552 | 282439
17 | 62:45.65 | 2:00.40 | 282440 | 291479
18 | 64:46.30 | 3:43.30 | 291480 | 308234
19 | 68:29.60 | 6:15.45 | 308235 | 336404


Track 1

Filename C:UsersVioletDesktopOUTPUTTrack01.wav

Peak level 62.1 %
Track quality 100.0 %
Copy CRC 72A7FAEF
Copy OK

Track 2

Filename C:UsersVioletDesktopOUTPUTTrack02.wav

Peak level 82.8 %
Track quality 99.9 %
Copy CRC 2ADF07BF
Copy OK

Track 3

Filename C:UsersVioletDesktopOUTPUTTrack03.wav

Peak level 98.8 %
Track quality 100.0 %
Copy CRC 70BBF8C7
Copy OK

Track 4

Filename C:UsersVioletDesktopOUTPUTTrack04.wav

Peak level 14.1 %
Track quality 100.0 %
Copy CRC EB8BC306
Copy OK

Track 5

Filename C:UsersVioletDesktopOUTPUTTrack05.wav

Peak level 36.0 %
Track quality 100.0 %
Copy CRC A7A554AD
Copy OK

Track 6

Filename C:UsersVioletDesktopOUTPUTTrack06.wav

Peak level 82.7 %
Track quality 99.9 %
Copy CRC 78AB8BE2
Copy OK

Track 7

Filename C:UsersVioletDesktopOUTPUTTrack07.wav

Peak level 97.7 %
Track quality 100.0 %
Copy CRC E0B7D1DF
Copy OK

Track 8

Filename C:UsersVioletDesktopOUTPUTTrack08.wav

Peak level 98.8 %
Track quality 100.0 %
Copy CRC 54D514ED
Copy OK

Track 9

Filename C:UsersVioletDesktopOUTPUTTrack09.wav

Peak level 99.3 %
Track quality 100.0 %
Copy CRC 8BB2205F
Copy OK

Track 10

Filename C:UsersVioletDesktopOUTPUTTrack10.wav

Peak level 10.6 %
Track quality 100.0 %
Copy CRC 8D131FB6
Copy OK

Track 11

Filename C:UsersVioletDesktopOUTPUTTrack11.wav

Peak level 24.3 %
Track quality 100.0 %
Copy CRC BF7C375E
Copy OK

Track 12

Filename C:UsersVioletDesktopOUTPUTTrack12.wav

Peak level 9.4 %
Track quality 100.0 %
Copy CRC C010FD89
Copy OK

Track 13

Filename C:UsersVioletDesktopOUTPUTTrack13.wav

Peak level 76.0 %
Track quality 100.0 %
Copy CRC 010FE848
Copy OK

Track 14

Filename C:UsersVioletDesktopOUTPUTTrack14.wav

Peak level 98.8 %
Track quality 100.0 %
Copy CRC E2CECDD5
Copy OK

Track 15

Filename C:UsersVioletDesktopOUTPUTTrack15.wav

Peak level 98.8 %
Track quality 99.9 %
Copy CRC B7C1C175
Copy OK

Track 16

Filename C:UsersVioletDesktopOUTPUTTrack16.wav

Peak level 94.6 %
Track quality 100.0 %
Copy CRC 0017ED50
Copy OK

Track 17

Filename C:UsersVioletDesktopOUTPUTTrack17.wav

Peak level 29.6 %
Track quality 99.9 %
Copy CRC 3E9F1B86
Copy OK

Track 18

Filename C:UsersVioletDesktopOUTPUTTrack18.wav

Peak level 17.2 %
Track quality 100.0 %
Copy CRC 4FD3FA08
Copy OK

Track 19

Filename C:UsersVioletDesktopOUTPUTTrack19.wav

Peak level 97.7 %
Track quality 99.9 %
Copy CRC 7CF20F20
Copy OK

No errors occurred

End of status report
------------mediainfo
General
Complete name : C:UsersVioletDesktopOUTPUTTrack01.flac
Format : FLAC
Format/Info : Free Lossless Audio Codec
File size : 18.9 MiB
Duration : 4mn 29s
Overall bit rate : 587 Kbps
Album : Unknown Title
Track name : Track01
Track name/Position : 01
Performer : Unknown Artist
Comment : Track 1

Audio
Format : FLAC
Format/Info : Free Lossless Audio Codec
Duration : 4mn 29s
Bit rate mode : Variable
Bit rate : 587 Kbps
Channel(s) : 2 channels
Sampling rate : 44.1 KHz
Resolution : 16 bits
Stream size : 18.8 MiB (100%)


Related torrents

Torrent NameAddedSizeSeedLeechHealth
1 Year+ - in Music269.4 MB10
1 Year+ - in Music437.21 MB10
1 Year+ - in Music26.61 GB00
1 Year+ - in Music444.61 MB00
1 Year+ - in Music385.46 MB00

Comments (0 Comments)




Please login or create a FREE account to post comments

Latest Searches

| Troye Sivan ft Alessia Cara Wild | Taxi 2 2000 x264 1080p | FIRING UP | time first | the new who | Taxi 2 2000 x264 720p | conductor 2012 | killer on the loose | bianco bonnie | ellen degeneres show 2016 12 02 |