Quick Browse
Movies
TV shows
Music
Games
Applications
Anime
Other
Facebook
Advertising

Friends
Torrent Download
Movie4u
1337x.to
Torrent Downloads




Pauline.Agente.Matrimoniale.2001.iTALiAN.FESTiVAL.DVDRip.XviD-MvN.[ultimafrontiera]


    Seeders : 6      Leechers : 34

Trackers List

Tracker NameLast CheckStatusSeedersLeechers




Torrent File Content (1 file)


     Pauline.Agente.Matrimoniale.2001.iTALiAN.FESTiVAL.DVDRip.XviD-MvN.avi -
699.88 MB



Description



http://i35.tinypic.com/23vevc8.jpg


http://i33.tinypic.com/120nes9.jpg


http://i36.tinypic.com/2wlzn9f.jpg


Titolo originale:Pauline Agente Matrimoniale
Anno: 2007
Genere: Commedia
Durata: 89
Regia: Andrea Katzenberger
Produzione: Medusa Video



http://i34.tinypic.com/301n9ec.jpg


[color=#00FF00]Ines Nieri, Louis Klamroth [/color]

http://i33.tinypic.com/2ldeeyr.jpg


[color=orange]Pauline ha nove anni e vive con la madre Anna perché il padre le ha lasciate anni prima per andare in America. A Pauline non sono mai piaciuti i fidanzati della madre, compreso l'ultimo, Pit. Quando l'uomo dichiara di non volere una famiglia e lascia Anna, Pauline giura vendetta e, insieme al suo amico Leon, fa di tutto per rendere la vita di Pit un inferno. Quando però capisce che la madre è ancora innamorata di lui, Pauline cambia i suoi piani e decide che la cosa migliore è fare in modo che i due tornino insieme e, questa volta, per sempre. Con astuzia Pauline raggiunge il suo scopo e Anna e Pit si sposano. Presto ci sarà; un fratellino in arrivo e Pauline imparerà; che in famiglia ciò che conta è la fiducia reciproca[/color]


http://i34.tinypic.com/1z1495e.jpg


[code]Format : AVI
Format/Info : Audio Video Interleave
File size : 700 MiB
Duration : 1h 28mn
Overall bit rate : 1 103 Kbps
Writing application : VirtualDubMod 1.5.10.2 (build 2540/release)
Writing library : VirtualDubMod build 2540/release

Video
ID : 0
Format : MPEG-4 Visual
Format profile : [email protected]
Format settings, BVOP : Yes
Format settings, QPel : No
Format settings, GMC : No warppoints
Format settings, Matrix : Default (MPEG)
Codec ID : XVID
Codec ID/Hint : XviD
Duration : 1h 28mn
Bit rate : 956 Kbps
Width : 624 pixels
Height : 352 pixels
Display aspect ratio : 16:9
Frame rate : 25.000 fps
Resolution : 24 bits
Colorimetry : 4:2:0
Scan type : Progressive
Bits/(Pixel*Frame) : 0.174
Stream size : 607 MiB (87%)
Writing library : XviD 1.2.1 (UTC 2008-12-04)

Audio
ID : 1
Format : MPEG Audio
Format version : Version 1
Format profile : Layer 3
Codec ID : 55
Codec ID/Hint : MP3
Duration : 1h 28mn
Bit rate mode : Variable
Bit rate : 133 Kbps
Nominal bit rate : 128 Kbps
Channel(s) : 2 channels
Sampling rate : 48.0 KHz
Resolution : 16 bits
Stream size : 84.6 MiB (12%)
Alignment : Aligned on interleaves
Interleave, duration : 24 ms (0.60 video frame)[/code]

Related torrents

Torrent NameAddedSizeSeedLeechHealth
1 Year+ - in Movies699.79 MB5122
1 Year+ - in Movies699.95 MB00
1 Year+ - in Movies699.94 MB82
1 Year+ - in Movies1009 bytes00
1 Year+ - in Movies1.36 GB01

Comments (0 Comments)




Please login or create a FREE account to post comments

Latest Searches

| DirtyWivesClub Mia Malkova 22049 | lucy li self defense | Car Mechanic 2015 update 1 1 0 0 | Wear Them All Autofitting Clones and Clothing Smoothers for Genesis 3 Female | i remember madonna | adventure time s06e34 chips and ice cream 720p web dl aac2 0 h 264 ntb rarbg | all hallows 2 2015 | credo 2008 1080p bluray x264 veto | Legend of the Guardians The Owls of GaHoole | brandenburg I BAROCCHISTI |