Quick Browse
Movies
TV shows
Music
Games
Applications
Anime
Other
Facebook
Advertising

Friends
Torrent Download
Movie4u
1337x.to
Torrent Downloads




Verified torrent Perfect Sense 2011 R5 DVDRip XVID AC3 HQ Hive-CM8


    Seeders : 1      Leechers : 0
Hash :A6F47896DA59F1EF6DCD3B3FD6F3B206932733D0
Added :1 Year+ by memory100Verified torrent uploader in Movies
Size :1.23 GB
Stream :WATCH ONLINE @ Movie4u


Perfect Sense 2011 R5 DVDRip XVID AC3 HQ Hive-CM8
Free and Fast Download with Usenet 300GB+ free







Trackers List

Tracker NameLast CheckStatusSeedersLeechers




Torrent File Content (7 files)


Perfect.Sense.2011.R5.DVDRip.XVID.AC3.HQ.Hive-CM8
     sample.avi -
11.1 MB

     sceneunderground.org.txt -
77 bytes

     att-networks.com.txt -
39 bytes

     Torrent downloaded from Demonoid.me.txt -
46 bytes

     Perfect.Sense.2011.R5.DVDRip.XVID.AC3.HQ.Hive-CM8.avi -
1.21 GB

     Perfect.Sense.2011.R5.DVDRip.XVID.AC3.HQ.Hive-CM8.nfo -
3.63 KB

     HDSceneRG.txt -
115 bytes



Description



http://img607.imageshack.us/img607/1971/perfectyi.jpg

[code]
Perfect.Sense.2011.R5.DVDRip.XVID.AC3.HQ.Hive-CM8

Thx Hive

CM8 Doing It Right The First Time


Source: Russian DVD-9
Poslednjaja.ljubov'.na.Zemle.2011.D.DVD.ELEKTRI4KA
(had English audio on it)

Encode:
DVD had great quality, did the usual, sharpness, rgb and denoise
got very nice
enjoy

Video: 720x304 @bitrate 1700 2pass
Audio: English AC3 5.1 @256 (as on dvd)
Sample: Yes, included


http://www.imdb.com/title/tt1439572/


General
Complete name : Perfect.Sense.2011.R5.DVDRip.XVID.AC3.HQ.Hive-CM8.avi
Format : AVI
Format/Info : Audio Video Interleave
File size : 1.21 GiB
Duration : 1h 28mn
Overall bit rate : 1 965 Kbps
Writing application : Nandub v1.0rc2
Writing library : Nandub build 1853/release

Video
ID : 0
Format : MPEG-4 Visual
Format profile : Advanced [email protected]
Format settings, BVOP : 2
Format settings, QPel : Yes
Format settings, GMC : No warppoints
Format settings, Matrix : Default (H.263)
Muxing mode : Packed bitstream
Codec ID : XVID
Codec ID/Hint : XviD
Duration : 1h 28mn
Bit rate : 1 700 Kbps
Width : 720 pixels
Height : 304 pixels
Display aspect ratio : 2.35:1
Frame rate : 25.000 fps
Color space : YUV
Chroma subsampling : 4:2:0
Bit depth : 8 bits
Scan type : Progressive
Compression mode : Lossy
Bits/(Pixel*Frame) : 0.311
Stream size : 1.05 GiB (86%)
Writing library : XviD 1.2.1 (UTC 2008-12-04)

Audio
ID : 1
Format : AC-3
Format/Info : Audio Coding 3
Mode extension : CM (complete main)
Codec ID : 2000
Duration : 1h 28mn
Bit rate mode : Constant
Bit rate : 256 Kbps
Channel(s) : 6 channels
Channel positions : Front: L C R, Side: L R, LFE
Sampling rate : 48.0 KHz
Bit depth : 16 bits
Compression mode : Lossy
Stream size : 162 MiB (13%)
Alignment : Split accross interleaves
Interleave, duration : 40 ms (1.00 video frame)
Interleave, preload duration : 500 ms


Plot:
A chef and a scientist fall in love as an epidemic begins to
rob people of their sensory perceptions.


Cast:
Ewan McGregor ... Michael
Eva Green ... Susan
Connie Nielsen
Stephen Dillane ... Samuel
N/A
[/code]
Screens:
http://img40.imageshack.us/img40/9207/32410744.png

http://img46.imageshack.us/img46/6600/71610086.png

http://img62.imageshack.us/img62/6926/30890275.png

http://img705.imageshack.us/img705/4661/67425260.png

Related torrents

Torrent NameAddedSizeSeedLeechHealth
1 Year+ - in Movies1.23 GB29117
1 Year+ - in Movies1.23 GB2141
1 Year+ - in Movies1.23 GB111
1 Year+ - in Movies1.23 GB144
1 Year+ - in Movies1.35 GB18

Comments (0 Comments)




Please login or create a FREE account to post comments

Latest Searches

| S05E09 Arrow hdtv | twice upon a christmas nl subs | kardashians Lord Disick Returns | browser bundle | anna de ville daddy | limit 10 minutes | elizabeth 1 tv | the C A B | S04E12 Vikings hdtv | Kiley Jay Man Milk Cookies |