Quick Browse
Movies
TV shows
Music
Games
Applications
Anime
Other

Donate and Support

Friends
Torrents.me
Torrent Download
Free Movies
1337x
RARBG
Torrent Downloads

Verified torrent Pete Smalls Is Dead 2010 Xvid AC3-26K


    Seeders : 1      Leechers : 0
Hash :271D723E02B4728A5B0B0B1E61937E1F6282421B
Added :1 Year+ by memory100Verified torrent uploader in Movies
Size :1.45 GB
Stream :Watch Full Movies Online @ Movie4u
Share :


Pete Smalls Is Dead 2010 Xvid AC3-26K
Anonymous and Direct Download 300GB+ free







Warning! Do not Download Torrents Without a VPN!
Your IP Address is .   And Location is
Your Internet Provider and Government can track your torrent Activity!  Hide your IP ADDRESS with a VPN!
We Strongly Recommend Using SpyOFF Torrent VPN to Anonymize your Torrenting. It's FREE For 15 Days!

Note :

Please Update (Trackers Info) Before Downloading Torrents to See Updated Seeders And Leechers for Batter Download Speed.

Trackers List

Tracker NameLast CheckStatusSeedersLeechers




Torrent File Content (7 files)


Pete Smalls Is Dead 2010 Xvid AC3-26K
     sample.avi -
29.04 MB

     sceneunderground.org.txt -
77 bytes

     att-networks.com.txt -
39 bytes

     Torrent downloaded from Demonoid.me.txt -
46 bytes

     Pete Smalls Is Dead 2010 Xvid AC3-26K.avi -
1.43 GB

     Pete Smalls Is Dead 2010 Xvid AC3-26K.nfo -
3.3 KB

     HDSceneRG.txt -
115 bytes



Description



http://img856.imageshack.us/img856/4809/petea.jpg

[code]
Pete Smalls Is Dead 2010 Xvid AC3-26K

Imdb:
http://www.imdb.com/title/tt1381413/

Plot:
Two old pals attend an old friends funeral and find there is more to his death than him being dead.

Sources:
DVDR

Notes:
enjoy guyz :)

Greetz:
Xtreme Encode|FYA|ILLUMANTI|CM8|RX|VISION|HDSCENE|NIGHTMAREZ|xTriLL|DTRG|CRYS|REMIXHD|BIDA
To all the people who have helped me :P you know who you are

Anything to offer email us @: [email protected]

Video
ID : 0
Format : MPEG-4 Visual
Format profile : Advanced [email protected]
Format settings, BVOP : 2
Format settings, QPel : No
Format settings, GMC : No warppoints
Format settings, Matrix : Default (H.263)
Muxing mode : Packed bitstream
Codec ID : XVID
Codec ID/Hint : XviD
Duration : 1h 34mn
Bit rate : 1 701 Kbps
Width : 720 pixels
Height : 398 pixels
Display aspect ratio : 16:9
Frame rate : 23.976 fps
Color space : YUV
Chroma subsampling : 4:2:0
Bit depth : 8 bits
Scan type : Progressive
Compression mode : Lossy
Bits/(Pixel*Frame) : 0.248
Stream size : 1.12 GiB (79%)
Writing library : XviD 1.2.1 (UTC 2008-12-04)

Audio
ID : 1
Format : AC-3
Format/Info : Audio Coding 3
Mode extension : CM (complete main)
Codec ID : 2000
Duration : 1h 34mn
Bit rate mode : Constant
Bit rate : 448 Kbps
Channel(s) : 6 channels
Channel positions : Front: L C R, Side: L R, LFE
Sampling rate : 48.0 KHz
Bit depth : 16 bits
Compression mode : Lossy
Stream size : 303 MiB (21%)
Alignment : Aligned on interleaves
Interleave, duration : 32 ms (0.77 video frame)
Interleave, preload duration : 32 ms

[/code]
Screens:
http://img440.imageshack.us/img440/7630/vlcsnap2011122616h39m06.png

http://img836.imageshack.us/img836/1092/vlcsnap2011122616h39m11.png

http://img546.imageshack.us/img546/7579/vlcsnap2011122616h39m19.png

http://img39.imageshack.us/img39/9255/vlcsnap2011122616h39m23.png

http://img834.imageshack.us/img834/5807/vlcsnap2011122616h39m29.png

http://img715.imageshack.us/img715/3397/vlcsnap2011122616h39m36.png


http://img851.imageshack.us/img851/5503/26ks.jpg
#
Thank you smallz for banner!

Related torrents

Torrent NameAddedSizeSeedLeechHealth
1 Year+ - in Movies1.45 GB00
1 Year+ - in Movies1.45 GB112
1 Year+ - in Movies1.34 GB119
1 Year+ - in Movies705.79 MB00
1 Year+ - in Movies698.99 MB3935

Comments (0 Comments)




Please login or create a FREE account to post comments

Latest Searches

| Security Agency | DaneJones Vanessa Decker | Michael Cox Mixer | life re | DaneJones Vanessa Decker Stockings and lingerie sex fantasy 09 05 2017 | driftmoon 2017 | laposata | rats 1985 | hallmark my favorite wedding | Orange Is the New Black S05E03 WEB x264 ELUDE |