Quick Browse
Movies
TV shows
Music
Games
Applications
Anime
Other

Donate and Support

Friends
Torrents.me
Torrent Download
Free Movies
1337x
RARBG
Torrent Downloads

Verified torrent Piranha [2010] Hindi 1Cd Dvd-Rip [~TDT~]@Mastitorrents


    Seeders : 81      Leechers : 62
Hash :2050D8AF9C3090C3E3C5F4C9ED8E598826BFFADC
Added :1 Year+ by mastitorrentsVerified torrent uploader in Movies
Size :716.68 MB
Stream :Watch Full Movies Online @ Movie4u
Share :


Piranha [2010] Hindi 1Cd Dvd-Rip [~TDT~]@Mastitorrents
Anonymous and Direct Download 300GB+ free







Warning! Do not Download Torrents Without a VPN!
Your IP Address is .   And Location is
Your Internet Provider and Government can track your torrent Activity!  Hide your IP ADDRESS with a VPN!
We Strongly Recommend Using SpyOFF Torrent VPN to Anonymize your Torrenting. It's FREE For 15 Days!

Note :

Please Update (Trackers Info) Before Downloading Torrents to See Updated Seeders And Leechers for Batter Download Speed.

Trackers List

Tracker NameLast CheckStatusSeedersLeechers




Torrent File Content (2 files)


Piranha [2010] 1Cd Dvd-Rip_By [~SAIF~] [~TDT~]
     Piranha [2010] 1Cd Dvd-Rip_By [~SAIF~] [~TDT~].avi -
708.12 MB

     SAMPLE.avi -
8.56 MB



Description



[color=red][font=Georgia]General
Complete name : D:\MOVIES\DUBBED\Piranha [2010] 1Cd Dvd-Rip_By [~SAIF~] [~TDT~]\Piranha [2010] 1Cd Dvd-Rip_By [~SAIF~] [~TDT~].avi
Format : AVI
Format/Info : Audio Video Interleave
File size : 708 MiB
Duration : 1h 24mn
Overall bit rate : 1 167 Kbps
Writing library : VirtualDub build 32817/release

Video
ID : 0
Format : MPEG-4 Visual
Format profile : Advanced [email protected]
Format settings, BVOP : Yes
Format settings, QPel : No
Format settings, GMC : No warppoints
Format settings, Matrix : Default (H.263)
Codec ID : XVID
Codec ID/Hint : XviD
Duration : 1h 24mn
Bit rate : 1 008 Kbps
Width : 624 pixels
Height : 272 pixels
Display aspect ratio : 2.25:1
Frame rate : 25.000 fps
Color space : YUV
Chroma subsampling
: 4:2:0
Bit depth : 8 bits
Scan type : Progressive
Bits/(Pixel*Frame) : 0.238
Stream size : 612 MiB (86%)
Writing library : XviD 1.2.1 (UTC 2008-12-04)

Audio
ID : 1
Format : MPEG Audio
Format version : Version 1
Format profile : Layer 3
Codec ID : 55
Codec ID/Hint : MP3
Duration : 1h 19mn
Bit rate mode : Constant
Bit rate : 160 Kbps
Channel(s) : 2 channels
Sampling rate : 48.0 KHz
Stream size : 90.4 MiB (13%)
Alignment : Split accross interleaves
Interleave, duration : 43 ms (1.07 video frame)
Interleave, preload duration : 500 ms
[/font][/color]

http://img813.imageshack.us/img813/8615/vlcsnap2010111610h44m11.jpg

http://img801.imageshack.us/img801/3771/vlcsnap2010111618h55m31.jpg

http://img716.imageshack.us/img716/5374/vlcsnap2010111618h55m54.jpg

http://img338.imageshack.us/img338/9729/vlcsnap2010111618h56m05.jpg

http://img444.imageshack.us/img444/29/vlcsnap2010111618h56m25.jpg

http://img201.imageshack.us/img201/135/vlcsnap2010111618h56m32.jpg

http://img19.imageshack.us/img19/2525/vlcsnap2010111618h57m08.jpg


Related torrents

Torrent NameAddedSizeSeedLeechHealth
Verified torrent
1 Year+ - in Movies712.99 MB00
Verified torrent
1 Year+ - in Movies699.5 MB115
1 Year+ - in Movies697.86 MB340
1 Year+ - in Movies705.62 MB00
1 Year+ - in Movies699.79 MB00

Comments (0 Comments)




Please login or create a FREE account to post comments

Latest Searches

| Gymnasts Figure | Guardians of the Galaxy BluRay 2017 bluray | Game of Thrones S07E02 TorrentCounter Season 7 Episode 1 | wild party girls scene | kon boot 1 | Private Carry Cherry moans like a bitch during Anal | brother | keith sweat Gerald levert | zebra girls stella | ragione morire |