Quick Browse
Movies
TV shows
Music
Games
Applications
Anime
Other
Facebook
Advertising

Friends
Torrent Download
Movie4u
1337x.to
Torrent Downloads




Verified torrent Piranha 2010 R5 XVID-Feel-Free


    Seeders : 0      Leechers : 0
Hash :9A1A949CC380953DB9AD1E49D4A4E542722A4364
Added :1 Year+ by piratepediaVerified torrent uploader in Movies
Size :1.37 GB
Stream :WATCH ONLINE @ Movie4u


Piranha 2010 R5 XVID-Feel-Free
Free and Fast Download with Usenet 300GB+ free







Trackers List

Tracker NameLast CheckStatusSeedersLeechers




Torrent File Content (9 files)


Piranha.2010.R5.LINE.XVID.AC3.Feel-Free
     Piranha.2010.R5.LINE.XVID.AC3.Feel-Free.avi -
1.37 GB

     Piranha_3_D_1277277006_2010.jpg -
135.7 KB

     Piranha.2010.R5.LINE.XVID.AC3.Feel-Free.srt -
47.45 KB

     vlcsnap2010-10-05-21h14m44s182.jpg -
25.17 KB

     vlcsnap2010-10-05-21h15m01s91.jpg -
23.27 KB

     vlcsnap2010-10-05-21h14m33s74.jpg -
23.09 KB

     vlcsnap2010-10-05-21h14m30s29.jpg -
19.01 KB

     vlcsnap2010-10-05-21h14m56s39.jpg -
17.55 KB

     Piranha.2010.R5.LINE.XVID.AC3.Feel-Free.nfo -
1.63 KB



Description



http://i52.tinypic.com/vsnivt.jpg


ScreenCaps:

http://i53.tinypic.com/mw5vft.jpg


[code]Piranha 2010 R5 XVID-Feel-Free
Source:DVD
Subtitles:Romanian
Audio:English

General
Complete name :Piranha.2010.R5.XVID.AC3.Feel-Free.avi
Format : AVI
Format/Info : Audio Video Interleave
File size : 1.37 GiB
Duration : 1h 24mn
Overall bit rate : 2 308 Kbps
Video #0
Muxing mode : Packed bitstream
Codec ID : XVID
Codec ID/Hint : XviD
Duration : 1h 24mn
Bit rate : 1 850 Kbps
Width : 720 pixels
Height : 304 pixels
Display aspect ratio : 2.35:1
Frame rate : 25.000 fps
Resolution : 24 bits
Colorimetry : 4:2:0
Scan type : Progressive
Bits/(Pixel*Frame) : 0.338
Stream size : 1.10 GiB (80%)
Writing library : XviD 1.2.1 (UTC 2008-12-04)
Audio #1
ID : 1
Format : AC-3
Format/Info : Audio Coding 3
Codec ID : 2000
Duration : 1h 24mn
Bit rate mode : Constant
Bit rate : 448 Kbps
Channel(s) : 6 channels
Channel positions : Front: L C R, Surround: L R, LFE
Sampling rate : 48.0 KHz
Stream size : 272 MiB (19%)
Alignment : Split accross interleaves
Interleave, duration : 40 ms (1.00 video frame)
Interleave, preload duration : 500 ms

Source: Piranha (2010) DVD5 + AC3 STUDIO AUDIO


How To Get Your Maxspeed (uTorrent)

Torrent Client - Preferences - Bandwidth - Number of connections - Set aprox. 500 for each
Torrent Client - Preferences - BiTorrent - Protocol Encryption - Forced
Bandwidth Allocation - High (Set download/upload limit - Unlimited)
Stop Other Active Torrents - Start downloading and wait for connections.
Enjoy and Seed for at least 1:1 ratio. Don't forget to say thanks/leave reviews.
Greets to all actual/future p2p/scene quality groups and affiliate websites.
Don't trust IMDb robot or bad ratings,always watch some trailers first.
Ignore stupid comments/fake/mislabeled/no-dvdrips/CAM/TS/RAR uploads.
Please spread this release/torrent to your friends/forums/etc.
If you need translation subs visit some subtitles sites.
Report if you see online streaming or other spam links.
Recommended movie player VLC PLAYER.[/code]

Related torrents

Torrent NameAddedSizeSeedLeechHealth
1 Year+ - in Movies941.49 MB143
1 Year+ - in Movies1.24 GB96
1 Year+ - in Movies1.9 GB4411
1 Year+ - in Movies1.16 GB02
1 Good
1 Year+ - in Movies1.26 GB00

Comments (2 Comments)




Umor
» Voted Good Voted Good for this torrent for this torrent
+1

Added 1 Year+
:-) Excellent
Umor
» Voted Good Voted Good for this torrent for this torrent

Added 1 Year+
:-) Excellent
Please login or create a FREE account to post comments

Latest Searches

| Castle FQM | ab soul 2016 album | jimmy fallon sia natalie portman roots iko mp3 | Depositing A Giant Load rq | porked hard | Download DmC Devil May Cry 5 | Abducted Scene 1 | george soros epub | Gogglebox Ireland S01E09 WebRip x264 KG2004 mp4 imass | ASSASSIN CREED 1 GAME |