Quick Browse
Movies
TV shows
Music
Games
Applications
Anime
Other
Facebook
Advertising

Friends
Torrent Download
Movie4u
1337x.to
Torrent Downloads




Verified torrent Pirates of the Caribbean On Stranger Tides 2011 TS XviD AC3 HQ Hive-CM8


    Seeders : 728      Leechers : 124

Trackers List

Tracker NameLast CheckStatusSeedersLeechers




Torrent File Content (11 files)


Pirates.of.the.Caribbean.On.Stranger.Tides.2011.TS.XviD.AC3.HQ.Hive-CM8
     Budget seedboxs.txt -
44 bytes

     NW RG.nfo -
12.96 KB

     Pirates.of.the.Caribbean.On.Stranger.Tides.2011.TS.XviD.AC3.HQ.Hive-CM8.avi -
1.56 GB

     Pirates.of.the.Caribbean.On.Stranger.Tides.2011.TS.XviD.AC3.HQ.Hive-CM8.nfo -
4.97 KB

     Torrent downloaded from Demonoid.me.txt -
46 bytes

     dark sample.avi -
3.65 MB

     daylight sample.avi -
2.85 MB

     dreamthe.net.txt -
91 bytes

     northernwarriors.net.txt -
135 bytes

     sceneunderground.org.txt -
77 bytes

     very dark sample.avi -
3.27 MB



Description



http://img801.imageshack.us/img801/4306/piratesstrangertides.jpg

[code]
Pirates.of.the.Caribbean.On.Stranger.Tides.2011.TS.XviD.AC3.HQ.Hive-CM8

Thx Hive

CM8 Doing It Right The First Time :D

!THIS VERSION IS IN SYNC!

Sources:
Video: Russian
Piraty.Karibskogo.morya.4.2011.D.TS.avi
thx
Audio: Imagines Line thx


Encode:
Well the russian video was very good in scenes with daylight, but very very dark and lifeless in colouring in dark scenes.
There is no way to do the whole movie with one setting for brightness without killing the daylight scenes.
So once again i had to cut the movie in parts and treat every part differently as needed.
That was a lot of work, believe me.
I corrected the wrong aspect, added a lot contrast and colouring for all dark parts, as you can see on the following screenshotcomparisons
I left the already good scenes at daylight nearly untouched

http://screenshotcomparison.com/comparison/53390

http://screenshotcomparison.com/comparison/53404


Imagines Line didnt fit to the russian video right away, had around 20 oose spots to fix to get everything nearly lipsync.
looks good now
prolly best version to get till new videosource arrives

btw: there is also a proper russian version out by now,which is worse than the first.

did i already mention that there are no oose spots? :D

Video: 720x272 @bitrate 1500 2pass

Audio: English AC3 2.0 Stereo

Sample: yes 3 included
daylight sample
dark sample
very dark sample



http://www.imdb.com/title/tt1298650/


General
Complete name : Pirates.of.the.Caribbean.On.s.T.2011.TS.XViD.AC3.HQ.Hive-CM8.avi
Format : AVI
Format/Info : Audio Video Interleave
File size : 1.56 GiB
Duration : 2h 7mn
Overall bit rate : 1 750 Kbps
Writing application : Nandub v1.0rc2
Writing library : Nandub build 1853/release

Video
ID : 0
Format : MPEG-4 Visual
Format profile : Advanced [email protected]
Format settings, BVOP : 2
Format settings, QPel : Yes
Format settings, GMC : No warppoints
Format settings, Matrix : Default (H.263)
Muxing mode : Packed bitstream
Codec ID : XVID
Codec ID/Hint : XviD
Duration : 2h 7mn
Bit rate : 1 484 Kbps
Width : 720 pixels
Height : 272 pixels
Display aspect ratio : 2.647
Frame rate : 23.976 fps
Color space : YUV
Chroma subsampling : 4:2:0
Bit depth : 8 bits
Scan type : Progressive
Compression mode : Lossy
Bits/(Pixel*Frame) : 0.316
Stream size : 1.32 GiB (85%)
Writing library : XviD 1.2.1 (UTC 2008-12-04)

Audio
ID : 1
Format : AC-3
Format/Info : Audio Coding 3
Mode extension : CM (complete main)
Codec ID : 2000
Duration : 2h 7mn
Bit rate mode : Constant
Bit rate : 256 Kbps
Channel(s) : 2 channels
Channel positions : Front: L R
Sampling rate : 48.0 KHz
Bit depth : 16 bits
Compression mode : Lossy
Stream size : 233 MiB (15%)
Alignment : Split accross interleaves
Interleave, duration : 42 ms (1.00 video frame)
Interleave, preload duration : 500 ms

CAST
Conor McCarron ... John McGill
Mhairi Anderson ... Elizabeth
Martin Bell ... Julian
Joe Cassidy ... Janitor
Linda Cuthbert ... Mrs Matheson

PLOT
Jack Sparrow and Barbossa embark on a quest to find the elusive fountain of youth,
only to discover that Blackbeard and his daughter are after it too.
[/code]
Screens:
http://img31.imageshack.us/img31/1710/43446576.png

http://img51.imageshack.us/img51/8256/pipii.png

http://img196.imageshack.us/img196/4674/ppii.png

http://img121.imageshack.us/img121/299/pipippipiii.png

http://img339.imageshack.us/img339/9492/pipippipipiii.png

http://img580.imageshack.us/img580/1859/pipippippiipiii.png

http://img17.imageshack.us/img17/213/pipippippipiipiii.png

http://img194.imageshack.us/img194/4083/pipippippipiipipiii.png

http://img62.imageshack.us/img62/8370/pippiii.png

http://img846.imageshack.us/img846/8641/pippipiii.png

Related torrents

Torrent NameAddedSizeSeedLeechHealth
1 Bad
1 Year+ - in Movies1.56 GB00
1 Comments
1 Year+ - in Movies1.56 GB00
1 Year+ - in Movies1.56 GB018
1 Year+ - in Movies1.56 GB00
1 Year+ - in Movies1.31 GB19

Comments (1 comment)




Simovee
» Downloaded this torrent Downloaded this torrent » Voted Bad Voted Bad for this torrent for this torrent

Added 1 Year+
Poor quality pictures.
Please login or create a FREE account to post comments

Latest Searches

| defenders of berk season 4 complete | adara backyard | Transport Fever 2 2 0 5 GOG | fifa 15 by r g mechanics | Teenage Tranny Cheerleader Anal Fucking | turn me on turn me out | Minx Gives Deepthroat | nero 6 0 1 18 | Vegas Sins Part 1 | The Mechanic2 |