Quick Browse
Movies
TV shows
Music
Games
Applications
Anime
Other

Donate and Support

Friends
Torrents.me
Torrent Download
Free Movies
1337x
RARBG
Torrent Downloads

Verified torrent Pirates of the Caribbean On Stranger Tides TS XViD - IMAGiNE


    Seeders : 0      Leechers : 0
Hash :E6DD5B8D6796035B2439F0172406EF8A0AA2B6A9
Added :1 Year+ by memory100Verified torrent uploader in Movies
Size :1.34 GB
Stream :Watch Full Movies Online @ Movie4u
Share :








Warning! Do not Download Torrents Without a VPN!
Your IP Address is .   And Location is
Your Internet Provider and Government can track your torrent Activity!  Hide your IP ADDRESS with a VPN!
We Strongly Recommend Using SpyOFF Torrent VPN to Anonymize your Torrenting. It's FREE For 15 Days!

Note :

Please Update (Trackers Info) Before Downloading Torrents to See Updated Seeders And Leechers for Batter Download Speed.

Trackers List

Tracker NameLast CheckStatusSeedersLeechers




Torrent File Content (9 files)


Pirates of the Caribbean On Stranger Tides TS XViD - IMAGiNE
     Budget seedboxs.txt -
44 bytes

     NW RG.nfo -
12.96 KB

     Pirates of the Caribbean On Stranger Tides TS XViD - IMAGiNE SAMPLE.avi -
9.23 MB

     Pirates of the Caribbean On Stranger Tides TS XViD - IMAGiNE.NFO -
5.05 KB

     Pirates of the Caribbean On Stranger Tides TS XViD - IMAGiNE.avi -
1.34 GB

     Torrent downloaded from Demonoid.me.txt -
46 bytes

     dreamthe.net.txt -
91 bytes

     northernwarriors.net.txt -
135 bytes

     sceneunderground.org.txt -
77 bytes



Description



http://img98.imageshack.us/img98/2423/top4g.jpg

[code]
Pirates of the Caribbean On Stranger Tides TS XViD - IMAGiNE

Ripper ...........: IMAGiNE IMDB Rating.......: 7.7/10
Video Codec.......: XVID Release Date......: 20/05/11
Audio Codec.......: MP3 Theatre Date......: 20/05/11
Audio Bitrate.....: 128 Runtime.......: 2h 07mn
Subtitles.........: NIL Language..........: ENGLISH
Resolution......: 720 x 288 IMDb URL..........: http://www.imdb.com/title/tt1298650/

DETAILS:

Video
ID : 0
Format : MPEG-4 Visual
Format profile : Advanced [email protected]
Format settings, BVOP : 2
Format settings, QPel : No
Format settings, GMC : No warppoints
Format settings, Matrix : Default (MPEG)
Muxing mode : Packed bitstream
Codec ID : XVID
Codec ID/Hint : XviD
Duration : 2h 7mn
Bit rate : 1 402 Kbps
Width : 720 pixels
Height : 288 pixels
Display aspect ratio : 2.500
Frame rate : 25.000 fps
Color space : YUV
Chroma subsampling : 4:2:0
Bit depth : 8 bits
Scan type : Progressive
Compression mode : Lossy
Bits/(Pixel*Frame) : 0.270
Stream size : 1.25 GiB (91%)
Writing library : XviD 61

Audio
ID : 1
Format : MPEG Audio
Format version : Version 1
Format profile : Layer 3
Mode : Joint stereo
Mode extension : MS Stereo
Codec ID : 55
Codec ID/Hint : MP3
Duration : 2h 7mn
Bit rate mode : Constant
Bit rate : 128 Kbps
Channel(s) : 2 channels
Sampling rate : 44.1 KHz
Compression mode : Lossy
Stream size : 117 MiB (8%)
Alignment : Split accross interleaves
Interleave, duration : 40 ms (1.00 video frame)
Writing library : LAME3.98r

Plot:
Jack Sparrow and Barbossa embark on a quest to find the elusive fountain of youth, only to

discover that Blackbeard and his daughter are after it too.

SOURCES:
VIDEO: ............ KiNOPARK Thanx Mate
AUDIO: ............ 69.1 super line audio Thanx Matey

NOTES:
IMAGiNE bringing you another release..........
Pirates of the Caribbean On Stranger Tides TS......
Right here we are with a nice TS Video was good, thanx to KiNOPARK for source files We made

a script to crop resize and so on.....
After adjusting the colors we brightened it up a bit as its a very dark film Audio is very

nice 69.1 super LiNE, synced and remuxed to our encode Enjoy Folks!
[/code]
Screens:
http://img804.imageshack.us/img804/195/46635890.jpg

http://img215.imageshack.us/img215/2912/77637281.jpg

http://img215.imageshack.us/img215/448/47817529.jpg

http://img820.imageshack.us/img820/736/38289731.jpg

http://img192.imageshack.us/img192/1857/91813757.jpg

http://img534.imageshack.us/img534/7137/62686010.jpg

http://img24.imageshack.us/img24/4750/93824952.jpg

Related torrents

Torrent NameAddedSizeSeedLeechHealth
1 Year+ - in Movies1.34 GB234
1 Year+ - in Movies1.34 GB00
1 Year+ - in Movies1.34 GB01
1 Year+ - in Movies1.34 GB037
1 Year+ - in Movies1.34 GB2810

Comments (0 Comments)




Please login or create a FREE account to post comments

Latest Searches

| viking complete 3 | the incredible adventures of van helsing 2 update | magoosh gre prep videos zip | the tennessee | Time Cop The Berlin Decision 2003 | emperor etrg | fitness Massage | Chris D Elia Incorrigable | the originals s01e20 nl | Lady Antebellum Own The Night 2011 BriBerY |