Quick Browse
Movies
TV shows
Music
Games
Applications
Anime
Other
Facebook
Advertising

Friends
Torrent Download
Movie4u
1337x.to
Torrent Downloads




Pirati.Dei.Caraibi.Oltre.I.Confini.Del.Mare.2011.iTALiAN.READNFO.V2.LD.TSRip.XviD-TrTd_CREW


    Seeders : 1      Leechers : 7

Trackers List

Tracker NameLast CheckStatusSeedersLeechers




Torrent File Content (3 files)


Pirati.Dei.Caraibi.Oltre.I.Confini.Del.Mare.2011.iTALiAN.READNFO.V2.LD.TSRip.XviD-TrTd_CREW
     Pirati.Dei.Caraibi.Oltre.I.Confini.Del.Mare.2011.iTALiAN.READNFO.V2.LD.TSRip.XviD-TrTd_CREW.avi -
612.5 MB

     presentazione.rtf -
30.64 KB

     presentazione.txt -
266 bytes



Description



http://www.torrented.org/public/phpbb3/images/presenta.png


http://img842.imageshack.us/img842/4748/newprojectlv.png


http://img607.imageshack.us/img607/41/piratideicaraibi.png



http://www.torrented.org/public/phpbb3/images/info%20film.png


[color=red]USCITA CINEMA:[/color] 18/05/2011
[color=red]REGIA:[/color] Rob Marshall
[color=red]SCENEGGIATURA:[/color] Ted Elliott, Terry Rossio
[color=red]ATTORI:[/color] Johnny Depp, Penélope Cruz, Ian McShane, Geoffrey Rush, Astrid Berges-Frisbey, Gemma Ward, Richard Griffiths, Judi Dench, Stephen Graham, Keith Richards, Kevin McNally, Greg Ellis, Yuki Matsuzaki


[color=red]FOTOGRAFIA:[/color] Dariusz Wolski
[color=red]MONTAGGIO:[/color] David Brenner, Michael Kahn, Wyatt Smith
[color=red]MUSICHE:[/color] Hans Zimmer
[color=red]PRODUZIONE:[/color] Jerry Bruckheimer Films, Walt Disney Pictures
[color=red]DISTRIBUZIONE:[/color] Walt Disney Pictures
[color=red]PAESE:[/color] USA 2011
[color=red]GENERE:[/color] Azione, Commedia, Fantasy, Avventura
[color=red]DURATA:[/color] 137 Min
[color=red]FORMATO:[/color] Colore

[spoiler]General
Count : 259
Count of stream of this kind : 1
Kind of stream : General
Kind of stream : General
Stream identifier : 0
Count of video streams : 1
Count of audio streams : 1
Video_Format_List : MPEG-4 Visual
Video_Format_WithHint_List : MPEG-4 Visual (XviD)
Codecs Video : XviD
Audio_Format_List : MPEG Audio
Audio_Format_WithHint_List : MPEG Audio (MP3)
Audio codecs : MPEG-1 Audio layer 3
Complete name : Pirati.Dei.Caraibi.Oltre.I.Confini.Del.Mare.2011.iTALiAN.READNFO.V2.LD.TSRip.XviD-TrTd_CREW\Pirati.Dei.Caraibi.Oltre.I.Confini.Del.Mare.2011.iTALiAN.READNFO.V2.LD.TSRip.XviD-TrTd_CREW.avi
Folder name : Pirati.Dei.Caraibi.Oltre.I.Confini.Del.Mare.2011.iTALiAN.READNFO.V2.LD.TSRip.XviD-TrTd_CREW
File name : Pirati.Dei.Caraibi.Oltre.I.Confini.Del.Mare.2011.iTALiAN.READNFO.V2.LD.TSRip.XviD-TrTd_CREW
File extension : avi
Format : AVI
Format : AVI
Format/Info : Audio Video Interleave
Format/Extensions usually used : avi
Interleaved : Yes
Codec : AVI
Codec : AVI
Codec/Info : Audio Video Interleave
Codec/Extensions usually used : avi
File size : 642252800
File size : 613 MiB
File size : 613 MiB
File size : 613 MiB
File size : 613 MiB
File size : 612.5 MiB
Duration : 7635593
Duration : 2h 7mn
Duration : 2h 7mn 15s 593ms
Duration : 2h 7mn
Duration : 02:07:15.593
Overall bit rate : 672904
Overall bit rate : 673 Kbps
Stream size : 9097229
Stream size : 8.68 MiB (1%)
Stream size : 9 MiB
Stream size : 8.7 MiB
Stream size : 8.68 MiB
Stream size : 8.676 MiB
Stream size : 8.68 MiB (1%)
Proportion of this stream : 0.01416
File creation date : UTC 2011-05-21 08:44:26.149
File creation date (local) : 2011-05-21 10:44:26.149
File last modification date : UTC 2011-05-21 08:40:14.877
File last modification date (loc : 2011-05-21 10:40:14.877
Writing application : VirtualDubMod 1.5.10.2 (build 2542/release)
Writing library : VirtualDubMod build 2542/release
Writing library : VirtualDubMod build 2542/release

Video
Count : 148
Count of stream of this kind : 1
Kind of stream : Video
Kind of stream : Video
Stream identifier : 0
ID : 0
ID : 0
Format : MPEG-4 Visual
Format profile : [email protected]
Format settings : BVOP
Format settings, BVOP : Yes
Format settings, BVOP : Yes
Format settings, QPel : No
Format settings, QPel : No
Format settings, GMC : 0
Format settings, GMC : No warppoints
Format settings, Matrix : Default (H.263)
Format settings, Matrix : Default (H.263)
Muxing mode : Packed bitstream
Codec ID : XVID
Codec ID/Hint : XviD
Codec ID/Url : http://mediaarea.net/XVID
Codec : XVID
Codec : XviD
Codec/Family : MPEG-4V
Codec/Info : XviD project
Codec/Url : http://www.xvid.org/Downloads.15.0.html
Codec/CC : XVID
Codec profile : [email protected]
Codec settings : BVOP / Packed Bitstream
Codec settings, Packet bitstream : Yes
Codec settings, BVOP : Yes
Codec settings, QPel : No
Codec settings, GMC : 0
Codec settings, GMC : No warppoints
Codec settings, Matrix : Default (H.263)
Duration : 7635593
Duration : 2h 7mn
Duration : 2h 7mn 15s 593ms
Duration : 2h 7mn
Duration : 02:07:15.593
Bit rate : 471374
Bit rate : 471 Kbps
Width : 670
Width : 670 pixels
Height : 340
Height : 340 pixels
Pixel aspect ratio : 1.000
Display aspect ratio : 1.971
Display aspect ratio : 1.971
Frame rate : 23.976
Frame rate : 23.976 fps
Frame count : 183071
Resolution : 24
Resolution : 24 bits
Colorimetry : 4:2:0
Scan type : Progressive
Scan type : Progressive
Interlacement : PPF
Interlacement : Progressive
Bits/(Pixel*Frame) : 0.086
Delay : 0
Stream size : 449902505
Stream size : 429 MiB (70%)
Stream size : 429 MiB
Stream size : 429 MiB
Stream size : 429 MiB
Stream size : 429.1 MiB
Stream size : 429 MiB (70%)
Proportion of this stream : 0.70051
Writing library : XviD0050
Writing library : XviD 1.2.1 (UTC 2008-12-04)
Writing library/Name : XviD
Writing library/Version : 1.2.1
Writing library/Date : UTC 2008-12-04

Audio
Count : 129
Count of stream of this kind : 1
Kind of stream : Audio
Kind of stream : Audio
Stream identifier : 0
ID : 1
ID : 1
Format : MPEG Audio
Format version : Version 1
Format profile : Layer 3
Codec ID : 55
Codec ID/Hint : MP3
Codec ID/Url : http://www.iis.fraunhofer.de/amm/index.html
Codec : MPA1L3
Codec : MPEG-1 Audio layer 3
Codec/Family : MPEG-1
Codec/Info : MPEG-1 or 2 layer 3
Codec/Url : http://www.iis.fraunhofer.de/amm/index.html
Codec/CC : 55
Duration : 7635545
Duration : 2h 7mn
Duration : 2h 7mn 15s 545ms
Duration : 2h 7mn
Duration : 02:07:15.545
Bit rate mode : CBR
Bit rate mode : Constant
Bit rate : 192000
Bit rate : 192 Kbps
Channel(s) : 2
Channel(s) : 2 channels
Sampling rate : 44100
Sampling rate : 44.1 KHz
SamplingCount : 336727535
Resolution : 16
Resolution : 16 bits
Delay : 0
Video delay : 0
Video0 delay : 0
Stream size : 183253066
Stream size : 175 MiB (29%)
Stream size : 175 MiB
Stream size : 175 MiB
Stream size : 175 MiB
Stream size : 174.8 MiB
Stream size : 175 MiB (29%)
Proportion of this stream : 0.28533
Alignment : Split
Alignment : Split accross interleaves
Interleave, duration : 1.00
Interleave, duration : 42
Interleave, duration : 42 ms (1.00 video frame)
Interleave, preload duration : 512
Interleave, preload duration : 512 ms[/spoiler]

http://www.torrented.org/public/phpbb3/images/trama.png


In Pirati dei Caraibi 4, Johnny Depp torna a vestire gli ironici panni del Capitano Jack Sparrow. Quando Jack incontra una donna del suo passato (Penelope Cruz), non è certo se si tratti di amore, o se lei sia una spietata artista dell'imbroglio intenzionata a usarlo per trovare la leggendaria Fontana dell'Eterna Giovinezza. Nel momento in cui lo costringe a salire a bordo della Queen Anne's Revenge, la nave del famigerato pirata Barbanera (Ian McShane), Jack si ritrova in un'inaspettata avventura in cui non sa chi temere di più: Barbanera o la donna del suo passato.


http://www.torrented.org/public/phpbb3/images/Screenshot.png


http://img855.imageshack.us/img855/7356/piratideicaraibi.jpg

Related torrents

Torrent NameAddedSizeSeedLeechHealth
Verified torrent
1 Year+ - in Movies1.37 GB00
1 Year+ - in Movies1.7 GB00
4 months ago - in Movies935.59 MB242
1 Year+ - in Movies1.92 GB10
1 Year+ - in Movies1.37 GB14158

Comments (0 Comments)




Please login or create a FREE account to post comments

Latest Searches

| julia ann eliza jane | tiziano ferro il mestiere | noodle road 3of6 the history of noodle culture 720p bluray x264 | Glorious Day Hymns of Faith casting crowns | superstars xxx of the 80s | 1983 2014 Malayalam DVDRIP | ATB Killer | just a smile up | Aretha Franklin The Ultimate Best Of 2011 | x files 3 nl |