Quick Browse
Movies
TV shows
Music
Games
Applications
Anime
Other
Facebook
Advertising

Friends
Torrent Download
Movie4u
1337x.to
Torrent Downloads




Pitbull & T-Pain - Hey Baby (Drop It To The Floor) HD 720p Xclusive(RaHuL {tHe HuNk})[Silver RG]


    Seeders : 26      Leechers : 19

Trackers List

Tracker NameLast CheckStatusSeedersLeechers




Torrent File Content (13 files)


Pitbull & T-Pain - Hey Baby (Drop It To The Floor) HD 720p(RaHuL {tHe HuNk})[Silver RG]
     Pitbull & T-Pain - Hey Baby (Drop It To The Floor) HD 720p(RaHuL {tHe HuNk})[Silver RG].mkv -
107.59 MB

     Pitbull & T-Pain - Hey Baby (Drop It To The Floor) HD 720p(RaHuL {tHe HuNk})[Silver RG].mkv_snapshot_02.58_[2011.06.18_22.37.01].png -
427.72 KB

     Pitbull & T-Pain - Hey Baby (Drop It To The Floor) HD 720p(RaHuL {tHe HuNk})[Silver RG].mkv_snapshot_01.43_[2011.06.18_22.33.24].png -
306.15 KB

     Pitbull & T-Pain - Hey Baby (Drop It To The Floor) HD 720p(RaHuL {tHe HuNk})[Silver RG].mkv_snapshot_01.21_[2011.06.18_22.32.47].png -
280.01 KB

     Pitbull & T-Pain - Hey Baby (Drop It To The Floor) HD 720p(RaHuL {tHe HuNk})[Silver RG].mkv_snapshot_02.11_[2011.06.18_22.33.56].png -
235.1 KB

     Pitbull & T-Pain - Hey Baby (Drop It To The Floor) HD 720p(RaHuL {tHe HuNk})[Silver RG]_s.jpg -
128.62 KB

     Info.txt -
6.16 KB

     Visit mE....for more uploads of mine.txt -
334 bytes

     tracked_by_h33t_com.txt -
193 bytes

     Torrent downloaded from AhaShare.com.txt -
59 bytes

     Torrent downloaded from Silvertorrents.me.txt -
53 bytes

     Torrent downloaded from Extratorrent.com.txt -
48 bytes

     Torrent downloaded from Demonoid.me.txt -
46 bytes



Description



http://img97.imageshack.us/img97/9201/pitbullgv.png

[color=red]Description[/color]
http://i.min.us/iKxaa.gif

[color=violet]::General::[/color]
Unique ID : 181492461090914086282918199514637632406 (0x888A2D3259FADAF4984F5626CED18396)
Complete name : Pitbull & T-Pain - Hey Baby (Drop It To The Floor) HD 720p(RaHuL {tHe HuNk})[Silver RG]Pitbull & T-Pain - Hey Baby (Drop It To The Floor) HD 720p(RaHuL {tHe HuNk})[Silver RG].mkv
Format : Matroska
File size : 108 MiB
Duration : 3mn 24s
Overall bit rate : 4 408 Kbps
Encoded date : UTC 2011-06-18 16:54:10
Writing application : mkvmerge v4.8.0 ('I Got The...') built on May 24 2011 03:12:58
Writing library : libebml v1.2.0 + libmatroska v1.1.0

http://i.min.us/iKM98.gif

[color=violet]::Video::[/color]
ID : 1
Format : AVC
Format/Info : Advanced Video Codec
Format profile : [email protected]
Format settings, CABAC : No
Format settings, ReFrames : 4 frames
Muxing mode : Header stripping
Codec ID : V_MPEG4/ISO/AVC
Duration : 3mn 24s
Bit rate : 4 205 Kbps
Width : 1 280 pixels
Height : 720 pixels
Display aspect ratio : 16:9
Frame rate : 23.976 fps
Color space : YUV
Chroma subsampling : 4:2:0
Bit depth : 8 bits
Scan type : Progressive
Bits/(Pixel*Frame) : 0.190
Stream size : 100.0 MiB (93%)
Writing library : x264 core 104 r1713 c276662
Encoding settings : cabac=0 / ref=1 / deblock=0:0:0 / analyse=0:0 / me=dia / subme=0 / psy=1 / psy_rd=0.00:0.00 / mixed_ref=0 / me_range=16 / chroma_me=1 / trellis=0 / 8x8dct=0 / cqm=0 / deadzone=21,11 / fast_pskip=1 / chroma_qp_offset=0 / threads=4 / sliced_threads=0 / nr=0 / decimate=1 / interlaced=0 / constrained_intra=0 / bframes=3 / b_pyramid=2 / b_adapt=0 / b_bias=0 / direct=1 / weightb=0 / open_gop=0 / weightp=2 / keyint=250 / keyint_min=25 / scenecut=0 / intra_refresh=0 / rc=abr / mbtree=0 / bitrate=4205 / ratetol=1.0 / qcomp=0.60 / qpmin=10 / qpmax=51 / qpstep=4 / ip_ratio=1.40 / pb_ratio=1.30 / aq=0

http://i.min.us/iPrK2.gif

[color=violet]::Audio::[/color]
ID : 2
Format : MPEG Audio
Format version : Version 1
Format profile : Layer 3
Mode : Joint stereo
Mode extension : MS Stereo
Muxing mode : Header stripping
Codec ID : A_MPEG/L3
Codec ID/Hint : MP3
Duration : 3mn 24s
Bit rate mode : Constant
Bit rate : 224 Kbps
Channel(s) : 2 channels
Sampling rate : 44.1 KHz
Compression mode : Lossy
Stream size : 5.47 MiB (5%)
Writing library : LAME3.98.4


[color=violet]:: Trackers ::[/color]
http://inferno.demonoid.me:3393/announce

http://exodus.1337x.org/announce

http://10.rarbg.com/announce

http://tracker.publicbt.com/announce

http://genesis.1337x.org:1337/announce

http://9.rarbg.com:2710/announce

http://exodus.1337x.org:1337/announce

http://pow7.com/announce

http://tracker.publicbt.com:80/announce

http://tracker.publicbt.com/announce

http://nemesis.1337x.org/announce


http://i.min.us/iONUE.gif

http://img683.imageshack.us/img683/6567/pitbulltpainheybabydrop.jpg

http://img193.imageshack.us/img193/9184/pitbulltpainheybabydrop.png

http://img853.imageshack.us/img853/9184/pitbulltpainheybabydrop.png

http://img19.imageshack.us/img19/9184/pitbulltpainheybabydrop.png

http://img706.imageshack.us/img706/9184/pitbulltpainheybabydrop.png



[color=Red]::Greetz::[/color]
rahulthehunk with kkhan ,EMAD,MXMG,BigW,AliBaloch,AllSilverRGEncoders,TorrentStateRG,1337x,ExtraTorrent,H33t,and and all other P2P Releasers

[color=Red]::Note::[/color]
Make sure its real Silver RG Release From Silver RG Account


http://i.min.us/iKZEe.png

http://i.imgur.com/1mi0I.gif

http://i.min.us/ibeG78.gif


[color=red]For Promotional Use Only... Remember to support the artists...
Anyway enjoy the Music,it is free!!!!
[/color]


Related torrents

Torrent NameAddedSizeSeedLeechHealth
Verified torrent
1 Year+ - in Music81.77 MB1511
1 Comments
1 Good
1 Year+ - in Music59.58 MB5683
1 Year+ - in Music72.76 MB7675
1 Year+ - in Movies86.04 MB12
Verified torrent
1 Year+ - in Music48.22 MB2548

Comments (0 Comments)




Please login or create a FREE account to post comments

Latest Searches

| Marvels Agents of S H I E L D S04E07 HEVC | morgan lee bukkake | civil war times torn frayed october 2015 true pdf | awakemy love | I love Jayne | beauty impossible | elvis nixon 2016 trailer | stranded s kristen | titans go baby hands | cashmere cat remix |