Quick Browse
Movies
TV shows
Music
Games
Applications
Anime
Other
Facebook
Advertising

Friends
Torrent Download
Movie4u
1337x.to
Torrent Downloads




Planet.51.Cam.2009.Xvid.v2.TA.torrent_[trackeraccess_org]


    Seeders : 0      Leechers : 0
Hash :D34883BD6C02E4FDF39EE05643432015B23273B6
Added :1 Year+ in Movies
Size :362.5 MB
Stream :WATCH ONLINE @ Movie4u


Planet.51.Cam.2009.Xvid.v2.TA.torrent_[trackeraccess_org]
Free and Fast Download with Usenet 300GB+ free







Trackers List

Tracker NameLast CheckStatusSeedersLeechers




Torrent File Content (28 files)


Planet.51.Cam.2009.Xvid.v2.TA
     Planet.51.Cam.2009.Xvid.v2.TA.nfo -
2.83 KB

     Planet.51.Cam.2009.Xvid.v2.TA.part01.rar -
13.97 MB

     Planet.51.Cam.2009.Xvid.v2.TA.part02.rar -
13.97 MB

     Planet.51.Cam.2009.Xvid.v2.TA.part03.rar -
13.97 MB

     Planet.51.Cam.2009.Xvid.v2.TA.part04.rar -
13.97 MB

     Planet.51.Cam.2009.Xvid.v2.TA.part05.rar -
13.97 MB

     Planet.51.Cam.2009.Xvid.v2.TA.part06.rar -
13.97 MB

     Planet.51.Cam.2009.Xvid.v2.TA.part07.rar -
13.97 MB

     Planet.51.Cam.2009.Xvid.v2.TA.part08.rar -
13.97 MB

     Planet.51.Cam.2009.Xvid.v2.TA.part09.rar -
13.97 MB

     Planet.51.Cam.2009.Xvid.v2.TA.part10.rar -
13.97 MB

     Planet.51.Cam.2009.Xvid.v2.TA.part11.rar -
13.97 MB

     Planet.51.Cam.2009.Xvid.v2.TA.part12.rar -
13.97 MB

     Planet.51.Cam.2009.Xvid.v2.TA.part13.rar -
13.97 MB

     Planet.51.Cam.2009.Xvid.v2.TA.part14.rar -
13.97 MB

     Planet.51.Cam.2009.Xvid.v2.TA.part15.rar -
13.97 MB

     Planet.51.Cam.2009.Xvid.v2.TA.part16.rar -
13.97 MB

     Planet.51.Cam.2009.Xvid.v2.TA.part17.rar -
13.97 MB

     Planet.51.Cam.2009.Xvid.v2.TA.part18.rar -
13.97 MB

     Planet.51.Cam.2009.Xvid.v2.TA.part19.rar -
13.97 MB

     Planet.51.Cam.2009.Xvid.v2.TA.part20.rar -
13.97 MB

     Planet.51.Cam.2009.Xvid.v2.TA.part21.rar -
13.97 MB

     Planet.51.Cam.2009.Xvid.v2.TA.part22.rar -
13.97 MB

     Planet.51.Cam.2009.Xvid.v2.TA.part23.rar -
13.97 MB

     Planet.51.Cam.2009.Xvid.v2.TA.part24.rar -
13.97 MB

     Planet.51.Cam.2009.Xvid.v2.TA.part25.rar -
13.97 MB

     Planet.51.Cam.2009.Xvid.v2.TA.part26.rar -
11.17 MB

     Sample.avi -
2.04 MB



Description



Planet.51.Cam.2009.Xvid.v2.TA


http://i45.tinypic.com/e67x2h.jpg


http://www.imdb.com/title/tt0762125/


[color=#FF0000]Work Done : Resized, adjusted color and Corrected Aspect Ratio[/color]


Source : Lu.mp4 (Thanks)
General
Complete name : Planet.51.Cam.2009.Xvid.v2.TA.avi
Format : AVI
Format/Info : Audio Video Interleave
File size : 366 MiB
Duration : 1h 24mn
Overall bit rate : 607 Kbps
Writing application : Lavf50.6.0
Writing library : VirtualDub build 30091/release

Video
ID : 0
Format : MPEG-4 Visual
Format profile : [email protected]
Format settings, BVOP : Yes
Format settings, QPel : No
Format settings, GMC : No warppoints
Format settings, Matrix : Default (H.263)
Muxing mode : Packed bitstream
Codec ID : XVID
Codec ID/Hint : XviD
Duration : 1h 24mn
Bit rate : 467 Kbps
Width : 640 pixels
Height : 256 pixels
Display aspect ratio : 2.500
Frame rate : 25.000 fps
Resolution : 24 bits
Colorimetry : 4:2:0
Scan type : Progressive
Bits/(Pixel*Frame) : 0.114
Stream size : 282 MiB (77%)
Writing library : XviD 1.2.1 (UTC 2008-12-04)

Audio
ID : 1
Format : MPEG Audio
Format version : Version 1
Format profile : Layer 3
Codec ID : 55
Codec ID/Hint : MP3
Duration : 1h 24mn
Bit rate mode : Constant
Bit rate : 128 Kbps
Channel(s) : 2 channels
Sampling rate : 44.1 KHz
Resolution : 16 bits
Stream size : 77.2 MiB (21%)
Alignment : Aligned on interleaves
Interleave, duration : 26 ms (0.65 video frame)
Interleave, preload duration : 522 ms

Screens

http://i47.tinypic.com/ajpfgp.jpg

http://i50.tinypic.com/6s7zb6.jpg

http://i48.tinypic.com/20fa0n.jpg

http://i46.tinypic.com/20kc7e1.jpg


*******************************************************************************************************************************
[color=#FF0000][size=medium]Here's a comparison of V1 and V2[/size][/color]

http://i50.tinypic.com/kq2pi.jpg

[color=#FF0000]Planet.51.Cam.2009.TA[/color]


http://i45.tinypic.com/11lrh9u.jpg

[color=#FF0000]Planet.51.Cam.2009.Xvid.v2.TA[/color]


Enjoy,
TA rg

Related torrents

Torrent NameAddedSizeSeedLeechHealth
1 Year+ - in Movies784.1 MB2227
1 Year+ - in Movies832.83 MB00
1 Year+ - in Movies1.65 GB01
1 Year+ - in Music174.55 MB5849
1 Year+ - in Music386.57 MB64

Comments (0 Comments)




Please login or create a FREE account to post comments

Latest Searches

| Private Reality 11 Singularity | Hell or High Water avi | underbelly ita 1x01 The Black Prince | English Grammar in Use Reference and Practice for Intermediate Students | for shes a lady | barebackstudios brielle | Dvd Motley Crue | Dennis Miller Show 28 SEP 09 CF MP3 | daz3d Bazaar | s Like It Black 15 |