Quick Browse
Movies
TV shows
Music
Games
Applications
Anime
Other
Facebook
Friends
Torrent Download
Movie4u
1337x.to
Torrent Downloads

Verified torrent Planet of the apes 2001 Bluray 720p Hindi-3385VKSH


    Seeders : 6      Leechers : 14
Hash :49AA028BD60ACCBE93A63FEF082721962B053519
Added :1 Year+ by VKS3385Verified torrent uploader in Movies
Size :1.95 GB
Stream :WATCH ONLINE @ Movie4u


Planet of the apes 2001 Bluray 720p Hindi-3385VKSH
Anonymous and Direct Download 300GB+ free








Trackers List

Tracker NameLast CheckStatusSeedersLeechers




Torrent File Content (10 files)


Planet of the apes 2001 Bluray 720p Hindi
     HD Desi Rockers Releases.docx -
82.03 KB

     Planet of the apes 2001 Bluray 720p Hindi 1.mkv -
1.34 GB

     Planet of the apes 2001 Bluray 720p Hindi 2.mkv -
624.42 MB

    Posters
          Cover.jpg -
98 KB

          Planet Of The Apes (2001).jpg -
117.93 KB

          planet_of_the_apes.jpg -
57.37 KB

          POTA 1.jpg -
246.91 KB

          POTA 2.jpg -
283.22 KB

          POTA 3.jpg -
197.99 KB

    Sample
          Sample.mkv -
7.32 MB



Description



http://img340.imageshack.us/img340/1050/hddesirockers.png

http://img62.imageshack.us/img62/5382/roadsignphp.png


http://img9.imageshack.us/img9/5410/planetoftheapes2001.jpg


http://img691.imageshack.us/img691/2917/planetoftheapess.jpg


http://img836.imageshack.us/img836/3343/25ic0hd1.png


It is the year 2029: Astronaut Leo Davidson boards a pod cruiser on a Space Station for a "routine" reconnaissance mission. But an abrupt detour through a space time wormhole lands him on a strange planet where talking apes rule over the human race. With the help of a sympathetic chimpanzee activist named Ari and a small band of human rebels, Leo leads the effort to evade the advancing Gorilla Army led by General Thade and his most trusted warrior Attar. Now the race is on to reach a sacred temple within the planet's Forbidden Zone to discover the shocking secrets of mankind's past - and the key to its future.

http://img714.imageshack.us/img714/4783/9k1gty1.png

Mark Wahlberg ... Captain Leo Davidson

Tim Roth ... Thade

Helena Bonham Carter ... Ari

Michael Clarke Duncan ... Attar

Paul Giamatti ... Limbo

Estella Warren ... Daena

Cary-Hiroyuki Tagawa ... Krull

David Warner ... Sandar

Kris Kristofferson ... Karubi

Erick Avari ... Tival

Luke Eberl ... Birn

Evan Parke ... Gunnar (as Evan

Dexter Parke)

Glenn Shadix ... Senator Nado

Freda Foh Shen ... Bon

Chris Ellis ... Commander Karl

Vasich


http://i50.tinypic.com/zvbzx2.jpg


General
Complete name : Planet of the apes 2001 Bluray 720p Hindi~3385VKSH
Format : Matroska
File size : 1.95 GiB
Duration : 2h 20mn
Overall bit rate : 1 984 Kbps
Encoded date : UTC 2010-09-09 04:54:45
Writing application : mkvmerge v4.2.0 ('No Talking') built on Jul 28 2010 18:38:23
Writing library : libebml v1.0.0 + libmatroska v1.0.0


http://img412.imageshack.us/img412/7057/imdb3.png

http://www.imdb.com/title/tt0133152/

http://img37.imageshack.us/img37/7218/vlcfile.png

Video
ID : 1
Format : AVC
Format/Info : Advanced Video Codec
Format profile : [email protected]
Format settings, CABAC : Yes
Format settings, ReFrames : 8 frames
Muxing mode : Container [email protected]
Codec ID : V_MPEG4/ISO/AVC
Duration : 2h 20mn
Bit rate : 1 832 Kbps
Nominal bit rate : 2 255 Kbps
Width : 1 280 pixels
Height : 544 pixels
Display aspect ratio : 2.35:1
Frame rate : 23.976 fps
Color space : YUV
Chroma subsampling : 4:2:0
Bit depth : 8 bits
Scan type : Progressive
Bits/(Pixel*Frame) : 0.110
Stream size : 1.80 GiB (92%)
Writing library : x264 core 80
r1376 3feaec2


http://img248.imageshack.us/img248/6613/musicfile1.png

Audio
ID : 2
Format : MPEG Audio
Format version : Version 1
Format profile : Layer 3
Codec ID : A_MPEG/L3
Codec ID/Hint : MP3
Duration : 2h 20mn
Bit rate mode : Constant
Bit rate : 112 Kbps
Channel(s) : 2 channels
Sampling rate : 48.0 KHz
Video delay : 208ms
Stream size : 113 MiB (6%)
Writing library : LAME3.98
Language : Hindi


http://i50.tinypic.com/2qtwdv8.jpg


http://img819.imageshack.us/img819/3788/keyartplanetoftheapes.jpg


http://img821.imageshack.us/img821/3760/planetoftheapes2001blur.jpg


http://img441.imageshack.us/img441/3760/planetoftheapes2001blur.jpg


http://img338.imageshack.us/img338/3760/planetoftheapes2001blur.jpg


http://img338.imageshack.us/img338/9198/planetoftheapes2001blurp.jpg


Sample

Sample Included in the Torrent

http://i49.tinypic.com/zoap2a.jpg


http://img690.imageshack.us/img690/2538/2s9d1cg.gif

http://i49.tinypic.com/28v8wmr.jpg


http://img205.imageshack.us/img205/91/15880378.png

http://img695.imageshack.us/img695/7097/6sdez7.gif

Related torrents

Torrent NameAddedSizeSeedLeechHealth
1 Year+ - in Movies4.42 GB219
1 Year+ - in Movies2.97 GB12
1 Year+ - in Movies2.18 GB1063
1 Year+ - in Movies814.53 MB235
11 months ago - in Movies4.6 GB21

Comments (0 Comments)




Please login or create a FREE account to post comments

Latest Searches

| chris brown golden | Carib 082114 672 | Terminator 2 Judgement Day | Serial Rom | princess 2002 | Zootopia 2016 720p BluRay AC3 x264 Greek | e disso | HorribleSubs Naruto Shippuuden 480 720p mkv | drive by truckers cd | Carib 080814 660 |