Quick Browse
Movies
TV shows
Music
Games
Applications
Anime
Other

Donate and Support

Friends
Torrents.me
Torrent Download
Free Movies
1337x
RARBG
Torrent Downloads

Verified torrent Players (2012) Hindi Xvid DVDScr Rip AC3 [TDT]@Mastitorrents


    Seeders : 0      Leechers : 0
Hash :309D974A30322BA724BEDB678D2667D81C3A0BE3
Added :1 Year+ by mastitorrentsVerified torrent uploader in Movies
Size :907.63 MB
Stream :Watch Full Movies Online @ Movie4u
Share :


Players (2012) Hindi Xvid DVDScr Rip AC3 [TDT]@Mastitorrents
Anonymous and Direct Download 300GB+ free







Warning! Do not Download Torrents Without a VPN!
Your IP Address is .   And Location is
Your Internet Provider and Government can track your torrent Activity!  Hide your IP ADDRESS with a VPN!
We Strongly Recommend Using SpyOFF Torrent VPN to Anonymize your Torrenting. It's FREE For 15 Days!

Note :

Please Update (Trackers Info) Before Downloading Torrents to See Updated Seeders And Leechers for Batter Download Speed.

Trackers List

Tracker NameLast CheckStatusSeedersLeechers




Torrent File Content (3 files)


Players (2012) - Xvid - DVDScr Rip - AC3 - [TDT]
     Players (2012) - Xvid - DVDScr Rip - AC3 - [TDT].avi -
894.96 MB

     Players (2012) - sample - [TDT].avi -
12.67 MB

     Movie Info.nfo -
2.48 KB



Description



[font=Georgia]

mastitorrents.com

http://mastitorrents.com/forums/index.php

General
Complete name : Players (2012) - Xvid - DVDScr Rip - AC3 - [TDT].avi
IMDB : IMDb - Players (2012)
Format : AVI
Format/Info : Audio Video Interleave
File size : 895 MiB
Duration : 2h 40mn
Overall bit rate : 778 Kbps
Writing application : VirtualDubMod 1.5.10.3 | VirtualDub-Fr.org || (build 2550/release)
Writing library : VirtualDubMod build 2550/release
Source : DvDScr @ Team ICTV .. Thnx A LOT
Ripper : KINGFISHER [~TDT~].

Video
ID : 0
Format : MPEG-4 Visual
Format profile : Advanced [email protected]
Format settings, BVOP : 1
Format settings, QPel : No
Format settings, GMC : No warppoints
Format settings, Matrix : Default (H.263)
Muxing mode : Packed bitstream
Codec ID : XVID
Codec ID/Hint : XviD
Duration : 2h 40mn
Bit rate : 673 Kbps
Width : 672 pixels
Height : 256 pixels
Display aspect ratio : 2.625
Frame rate : 23.976 fps
Color space : YUV
Chroma subsampling : 4:2:0
Bit depth : 8 bits
Scan type : Progressive
Compression mode : Lossy
Bits/(Pixel*Frame) : 0.163
Stream size : 774 MiB (86%)
Writing library : XviD 1.2.1 (UTC 2008-12-04)

Audio
ID : 1
Format : AC-3
Format/Info : Audio Coding 3
Mode extension : CM (complete main)
Codec ID : 2000
Duration : 2h 40mn
Bit rate mode : Constant
Bit rate : 96.0 Kbps
Channel(s) : 2 channels
Channel positions : Front: L R
Sampling rate : 48.0 KHz
Bit depth : 16 bits
Compression mode : Lossy
Stream size : 110 MiB (12%)
Alignment : Aligned on interleaves
Interleave, duration : 42 ms (1.00 video frame)
Interleave, preload duration : 512 ms
[/font]

http://picturestack.com/114/810/76svlcsnap201k0t.png

http://picturestack.com/114/810/32Evlcsnap201cWI.png

http://picturestack.com/114/810/mpHvlcsnap201AZl.png

http://picturestack.com/114/810/xqMvlcsnap201GBT.png

http://picturestack.com/114/810/4KCvlcsnap201rwM.png

http://picturestack.com/114/810/dWCvlcsnap201nyT.png

http://picturestack.com/114/810/uWSvlcsnap201ILP.png

http://picturestack.com/114/810/Rgjvlcsnap2012zs.png

http://picturestack.com/114/810/WYLvlcsnap201u1m.png

Related torrents

Torrent NameAddedSizeSeedLeechHealth
1 Year+ - in Movies708.49 MB034
1 Year+ - in Movies901.25 MB00
Verified torrent
1 Year+ - in Movies691.13 MB00
1 Year+ - in Movies710 MB00
1 Year+ - in Movies676.35 MB4417

Comments (0 Comments)




Please login or create a FREE account to post comments

Latest Searches

| bob dylan bob dylan 1963 | the within movie | big tits sex video | american graffiti soundtrack 2cd | abbey Brooks chicks | skoda workshop | the magical legend 1999 | E13 | Aldo Giovanni Giacomo Non solo i corti Dvd 3 | Ford Parker |