Quick Browse
Movies
TV shows
Music
Games
Applications
Anime
Other
Facebook
Advertising

Friends
Torrent Download
Movie4u
1337x.to
Torrent Downloads




Pocahontas 1995 720p HDTV Dual Audio [Eng-Hindi]~Alan (HDDR Release)


    Seeders : 1      Leechers : 0

Trackers List

Tracker NameLast CheckStatusSeedersLeechers




Torrent File Content (7 files)


Pocahontas 1995 720p HDTV Dual Audio [Eng-Hindi]~Alan (HDDR Release)
    Sample
          Sample.mkv -
31.64 MB

     Pocahontas 1995 720p HDTV Dual Audio [Eng-Hindi]~Alan (HDDR Release).mkv -
2.18 GB

     Pocahontas.jpg -
265.94 KB

     INFO.nfo -
3.42 KB

     JOIN IN FACE BOOK N ORKUT..txt -
695 bytes

     Torrent Downloaded from Limetorrents.com.txt -
46 bytes

     Torrent downloaded from Demonoid.me.txt -
46 bytes



Description



http://img6.imageshack.us/img6/1323/faraz.png


http://www.leetleech.org/images/18782825324236289646.jpg


http://img94.imageshack.us/img94/3343/25ic0hd1.png


Release Title: Pocahontas 1995

Release Date: 23 June 1995 (USA)

Film Length: 1:21:07

Tagline: An American legend comes to life

Storyline: Capt. John Smith leads a rag-tag band of English sailors & soldiers to the New World to plunder its riches for England (or, more precisely, for Governor Ratcliffe, who comes along for the ride). Meanwhile, in this "New World," Chief Powhatan has pledged his daughter, Pocahontas, to be married to the village's greatest warrior. Pocahontas, however, has other ideas. She has seen a vision of a spinning arrow, a vision she believes tells her change is coming. Her life does indeed change when the English ship lands near her village. Between Ratcliffe, who believes the "savages" are hiding the gold he expected to be plentiful, and Powhatan, who believes these pale newcomers will destroy their land, Smith and Pocahontas have a difficult time preventing all-out war, and saving their love for each other.

http://img90.imageshack.us/img90/4783/9k1gty1.png


Irene Bedard ... Pocahontas (voice)
Judy Kuhn ... Pocahontas (singing voice)
Mel Gibson ... John Smith (voice)
David Ogden Stiers ... Governor Ratcliffe / Wiggins (voice)
John Kassir ... Meeko (voice)
Russell Means ... Powhatan (voice)
Christian Bale ... Thomas (voice)
Linda Hunt ... Grandmother Willow (voice)
Danny Mann ... Percy (voice)
Billy Connolly ... Ben (voice)
Joe Baker ... Lon (voice)
Frank Welker ... Flit (voice)
Michelle St. John ... Nakoma (voice)
James Apaumut Fall ... Kocoum (voice)
Gordon Tootoosis ... Kekata (voice)

http://img682.imageshack.us/img682/4868/zvbzx21.png


Format: Matroska
File size: 2.18 GiB
Duration: 1h 21mn
Overall bit rate: 3 847 Kbps
Movie name: Pocahontas 1995 720p HDTV Dual Audio [Eng-Hindi]~Alan (HDDR Release)
Genre: Animation | Drama | Family
Language: English and Hindi
Ripper: Alan

http://img518.imageshack.us/img518/241/windowsmediaplayerfile.png

Video
ID : 1
Format : AVC
Format/Info : Advanced Video Codec
Format profile : [email protected]
Format settings, CABAC : Yes
Format settings, ReFrames : 4 frames
Muxing mode : Header stripping
Codec ID : V_MPEG4/ISO/AVC
Duration : 1h 21mn
Bit rate : 3 079 Kbps
Width : 1 210 pixels
Height : 720 pixels
Display aspect ratio : 1.681
Frame rate : 23.976 fps
Color space : YUV
Chroma subsampling : 4:2:0
Bit depth : 8 bits
Scan type : Progressive
Bits/(Pixel*Frame) : 0.147
Stream size : 1.70 GiB (78%)
Title : Alan
Writing library : x264 core 114 r1924 08d04a4
Language : English

http://img248.imageshack.us/img248/6613/musicfile1.png

Audio #1
ID : 2
Format : AC-3
Format/Info : Audio Coding 3
Mode extension : CM (complete main)
Muxing mode : Header stripping
Codec ID : A_AC3
Duration : 1h 21mn
Bit rate mode : Constant
Bit rate : 448 Kbps
Channel(s) : 6 channels
Channel positions : Front: L C R, Side: L R, LFE
Sampling rate : 48.0 KHz
Bit depth : 16 bits
Compression mode : Lossy
Stream size : 260 MiB (12%)
Title : Alan
Language : English

http://img248.imageshack.us/img248/6613/musicfile1.png

Audio #2
ID : 3
Format : AC-3
Format/Info : Audio Coding 3
Mode extension : CM (complete main)
Muxing mode : Header stripping
Codec ID : A_AC3
Duration : 1h 21mn
Bit rate mode : Constant
Bit rate : 320 Kbps
Channel(s) : 2 channels
Channel positions : Front: L R
Sampling rate : 48.0 KHz
Bit depth : 16 bits
Compression mode : Lossy
Delay relative to video : 2ms
Stream size : 186 MiB (8%)
Title : Alan
Language : Hindi

http://img52.imageshack.us/img52/7996/ogtw21.gif


http://www.leetleech.org/images/44536686181156116726.png

http://www.leetleech.org/images/02301514676018642768.png

http://www.leetleech.org/images/32227334722433737742.png

http://www.leetleech.org/images/70105001228121371079.png

http://www.leetleech.org/images/16968003046608035858.png

http://www.leetleech.org/images/89693135947444994972.png

http://www.leetleech.org/images/06537267658188823193.png

http://www.leetleech.org/images/47652513687533809418.png


http://img408.imageshack.us/img408/4206/slqp2p1.gif


http://img265.imageshack.us/img265/1013/nlx4ysjpg.gif

Related torrents

Torrent NameAddedSizeSeedLeechHealth
1 Year+ - in Anime2.23 GB10
1 Year+ - in Movies2.24 GB10
1 Year+ - in Movies2.15 GB21
1 Year+ - in Movies1.67 GB15
1 Year+ - in Movies907.06 MB12

Comments (0 Comments)




Please login or create a FREE account to post comments

Latest Searches

| bhaag milkha bhaag bhaag rock | Initial D Stage 1 4 | skillshare the first steps of fashion | Days Of Our Lives S52 E58 | AV 20989 | bully anniversary edition edition | john gartner | Mort Garson Collection 1968 76 | bang real s 1080p | wale the body feat jeremih |