Quick Browse
Movies
TV shows
Music
Games
Applications
Anime
Other
Facebook
Advertising

Friends
Torrent Download
Movie4u
1337x.to
Torrent Downloads




Verified torrent Poolboy Drowning Out The Fury 2011 720p BRRip XviD AC3-26k


    Seeders : 1      Leechers : 0

Trackers List

Tracker NameLast CheckStatusSeedersLeechers




Torrent File Content (13 files)


Poolboy Drowning Out The Fury 2011 720p BRRip XviD AC3-26k
     1.png -
1.31 MB

     2.png -
1.27 MB

     26k nfo.nfo -
3.86 KB

     3.png -
1.25 MB

     4.png -
1.35 MB

     HDSceneRG.txt -
115 bytes

     Poolboy Drowning Out The Fury 2011 720p BRRip XviD AC3-26k.avi -
2.29 GB

     Poolboy Drowning Out The Fury 2011 720p BRRip XviD AC3-26k.jpg -
212.75 KB

     Torrent downloaded from Demonoid.me.txt -
46 bytes

     Torrent downloaded from rarbg.com.txt.txt -
0 bytes

     YouTube Latest Releases And Archive.txt -
76 bytes

     att-networks.com.txt -
39 bytes

     sceneunderground.org.txt -
77 bytes



Description



http://img856.imageshack.us/img856/9638/pooln.jpg

[code]

Poolboy Drowning Out The Fury 2011 720p BRRip XviD AC3-26k

http://www.imdb.com/title/tt1693843/

Plot:
In this unearthed lost movie from 1990 that the studio deemed too terrible to release, a Vietnam
Veteran Sal Bando(Sorbo), tortured by his past as a Poolboy returns home to Van Nuys, California,
and a country he doesn't recognize, in which it seems only Mexicans run pool-cleaning companies.
Bando sets off on a brutal mission to reclaim his "rightful" vocation and enact revenge on the man
(Trejo) who killed his wife and son.

Sources - Poolboy.Drowning.Out.the.Fury.2011.1080p.BluRay.x264-SWAGGERHD.....Thanks :P

Format : AVI
Format/Info : Audio Video Interleave
Format profile : OpenDML
File size : 2.29 GiB
Duration : 1h 29mn
Overall bit rate : 3 642 Kbps
Writing library : VirtualDub build 32839/release

Video
ID : 0
Format : MPEG-4 Visual
Format profile : Advanced [email protected]
Format settings, BVOP : 2
Format settings, QPel : No
Format settings, GMC : No warppoints
Format settings, Matrix : Default (H.263)
Codec ID : XVID
Codec ID/Hint : XviD
Duration : 1h 29mn
Bit rate : 2 990 Kbps
Width : 1 280 pixels
Height : 720 pixels
Display aspect ratio : 16:9
Frame rate : 23.976 fps
Color space : YUV
Chroma subsampling : 4:2:0
Bit depth : 8 bits
Scan type : Progressive
Compression mode : Lossy
Bits/(Pixel*Frame) : 0.135
Stream size : 1.88 GiB (82%)
Writing library : XviD 1.2.1 (UTC 2008-12-04)

Audio
ID : 1
Format : AC-3
Format/Info : Audio Coding 3
Mode extension : CM (complete main)
Codec ID : 2000
Duration : 1h 29mn
Bit rate mode : Constant
Bit rate : 640 Kbps
Channel(s) : 6 channels
Channel positions : Front: L C R, Side: L R, LFE
Sampling rate : 48.0 KHz
Bit depth : 16 bits
Compression mode : Lossy
Stream size : 411 MiB (18%)
Alignment : Split accross interleaves
Interleave, duration : 42 ms (1.00 video frame)
Interleave, preload duration : 500 ms




Notes -

Did my thing... turned out real nice...enjoy

[/code]

Screens:
http://i.imgur.com/GvtIL.jpg

http://i.imgur.com/bMKmJ.jpg

http://img838.imageshack.us/img838/8688/52095051.png

http://img252.imageshack.us/img252/1071/59523796.png

http://img838.imageshack.us/img838/6882/poolboydrowningoutthefu.jpg


Alternative screens:
http://www.hotimg.com/image/ny9ZQV6
http://imgdepot.org/show/20120310/2/547020_3.png
http://www.imageporter.com/hqd6o0twqec4/4.png
http://dippic.com/glfnevvfkb4b

Greetz:
Xtreme Encode|FYA|ILLUMANTI|CM8|RX|VISI​ON|HDSCENE|xTriLL|DTRG|CRYS|REMIX​HD|BIDA|RX|REFILL|INSPiRAL|SIC|
|HO​PE|Anonymous|GooN|miRaGe
To all the people who have helped me you know who you are

Anything to offer email us @: [email protected]


http://img851.imageshack.us/img851/5503/26ks.jpg

Thank you smallz for banner!

Related torrents

Torrent NameAddedSizeSeedLeechHealth
5 months ago - in Other1.09 GB128
1 Year+ - in Movies793.45 MB00
1 Year+ - in Movies639.72 MB436
1 Year+ - in Movies900.26 MB119
1 Year+ - in Movies3.16 GB151

Comments (0 Comments)




Please login or create a FREE account to post comments

Latest Searches

| david sylvian robert fripp first day | erena yuuki hc 08 21 2015 mylove mp4 | VA 80 s dance | five nights at sister | bbb converter | fella pill A half | you can leave your hat on Joe Cocker | pacific 1080p hevc | pumps amy | flight |