Quick Browse
Movies
TV shows
Music
Games
Applications
Anime
Other
Facebook
Advertising

Friends
Torrent Download
Movie4u
1337x.to
Torrent Downloads




Precious.DVDSCR.Blurred.XviD-TA.torrent_[trackeraccess_org]


    Seeders : 1      Leechers : 0
Hash :58681858F2D9F087CD2621C049AE32F5BA2207F3
Added :1 Year+ in Movies
Size :677.97 MB
Stream :WATCH ONLINE @ Movie4u


Precious.DVDSCR.Blurred.XviD-TA.torrent_[trackeraccess_org]
Free and Fast Download with Usenet 300GB+ free







Trackers List

Tracker NameLast CheckStatusSeedersLeechers




Torrent File Content (51 files)


Precious.DVDSCR.Blurred.XviD-TA
     Precious.DVDSCR.Blurred.XviD-TA.part27.rar -
13.97 MB

     Precious.DVDSCR.Blurred.XviD-TA.part03.rar -
13.97 MB

     Precious.DVDSCR.Blurred.XviD-TA.part04.rar -
13.97 MB

     Precious.DVDSCR.Blurred.XviD-TA.part05.rar -
13.97 MB

     Precious.DVDSCR.Blurred.XviD-TA.part06.rar -
13.97 MB

     Precious.DVDSCR.Blurred.XviD-TA.part07.rar -
13.97 MB

     Precious.DVDSCR.Blurred.XviD-TA.part08.rar -
13.97 MB

     Precious.DVDSCR.Blurred.XviD-TA.part09.rar -
13.97 MB

     Precious.DVDSCR.Blurred.XviD-TA.part10.rar -
13.97 MB

     Precious.DVDSCR.Blurred.XviD-TA.part11.rar -
13.97 MB

     Precious.DVDSCR.Blurred.XviD-TA.part12.rar -
13.97 MB

     Precious.DVDSCR.Blurred.XviD-TA.part13.rar -
13.97 MB

     Precious.DVDSCR.Blurred.XviD-TA.part14.rar -
13.97 MB

     Precious.DVDSCR.Blurred.XviD-TA.part15.rar -
13.97 MB

     Precious.DVDSCR.Blurred.XviD-TA.part16.rar -
13.97 MB

     Precious.DVDSCR.Blurred.XviD-TA.part17.rar -
13.97 MB

     Precious.DVDSCR.Blurred.XviD-TA.part18.rar -
13.97 MB

     Precious.DVDSCR.Blurred.XviD-TA.part19.rar -
13.97 MB

     Precious.DVDSCR.Blurred.XviD-TA.part20.rar -
13.97 MB

     Precious.DVDSCR.Blurred.XviD-TA.part21.rar -
13.97 MB

     Precious.DVDSCR.Blurred.XviD-TA.part22.rar -
13.97 MB

     Precious.DVDSCR.Blurred.XviD-TA.part23.rar -
13.97 MB

     Precious.DVDSCR.Blurred.XviD-TA.part24.rar -
13.97 MB

     Precious.DVDSCR.Blurred.XviD-TA.part25.rar -
13.97 MB

     Precious.DVDSCR.Blurred.XviD-TA.part26.rar -
13.97 MB

     Precious.DVDSCR.Blurred.XviD-TA.part02.rar -
13.97 MB

     Precious.DVDSCR.Blurred.XviD-TA.part28.rar -
13.97 MB

     Precious.DVDSCR.Blurred.XviD-TA.part29.rar -
13.97 MB

     Precious.DVDSCR.Blurred.XviD-TA.part30.rar -
13.97 MB

     Precious.DVDSCR.Blurred.XviD-TA.part31.rar -
13.97 MB

     Precious.DVDSCR.Blurred.XviD-TA.part32.rar -
13.97 MB

     Precious.DVDSCR.Blurred.XviD-TA.part33.rar -
13.97 MB

     Precious.DVDSCR.Blurred.XviD-TA.part34.rar -
13.97 MB

     Precious.DVDSCR.Blurred.XviD-TA.part35.rar -
13.97 MB

     Precious.DVDSCR.Blurred.XviD-TA.part36.rar -
13.97 MB

     Precious.DVDSCR.Blurred.XviD-TA.part37.rar -
13.97 MB

     Precious.DVDSCR.Blurred.XviD-TA.part38.rar -
13.97 MB

     Precious.DVDSCR.Blurred.XviD-TA.part39.rar -
13.97 MB

     Precious.DVDSCR.Blurred.XviD-TA.part40.rar -
13.97 MB

     Precious.DVDSCR.Blurred.XviD-TA.part41.rar -
13.97 MB

     Precious.DVDSCR.Blurred.XviD-TA.part42.rar -
13.97 MB

     Precious.DVDSCR.Blurred.XviD-TA.part43.rar -
13.97 MB

     Precious.DVDSCR.Blurred.XviD-TA.part44.rar -
13.97 MB

     Precious.DVDSCR.Blurred.XviD-TA.part45.rar -
13.97 MB

     Precious.DVDSCR.Blurred.XviD-TA.part46.rar -
13.97 MB

     Precious.DVDSCR.Blurred.XviD-TA.part47.rar -
13.97 MB

     Precious.DVDSCR.Blurred.XviD-TA.part48.rar -
13.97 MB

     Precious.DVDSCR.Blurred.XviD-TA.part01.rar -
13.97 MB

     Sample.avi -
4.54 MB

     Precious.DVDSCR.Blurred.XviD-TA.part49.rar -
2.8 MB



Description



Precious.DVDSCR.Blurred.XviD-TA

http://i45.tinypic.com/2076es7.jpg



http://www.imdb.com/title/tt0929632/

Plot:
Claireece Precious Jones endures unimaginable hardships in her young life. Abused by her mother, raped

by her father, she grows up poor, angry, illiterate, fat, unloved and generally unnoticed. So what

better way to learn about her than through her own, halting dialect. That is the device deployed in

the first novel by poet and singer Sapphire. "Sometimes I wish I was not alive," Precious says. "But I

don't know how to die. Ain' no plug to pull out. 'N no matter how bad I feel my heart don't stop

beating and my eyes open in the morning." An intense story of adversity and the mechanisms to cope

with it.

Precious is a major motion picture based on the novel Push by Sapphire, starring Gabourey 'Gabby'

Sidibe, Mo'Nique, Paula Patton, Mariah Carey, and Lenny Kravitz.

Cast:
Gabourey 'Gabby' Sidibe ... Precious (as Gabourey Sidibe)
Mo'Nique ... Mary
Paula Patton ... Ms. Rain
Mariah Carey ... Mrs. Weiss
Sherri Shepherd ... Cornrows
Lenny Kravitz ... Nurse John
Stephanie Andujar ... Rita
Chyna Layne ... Rhonda
Amina Robinson ... Jermaine
Xosha Roquemore ... Joann
Angelic Zambrana ... Consuelo
Aunt Dot ... Tootsie
Nealla Gordon ... Mrs. Lichtenstein
Grace Hightower ... Social Worker
Barret Helms ... Tom Cruise (as Barret Isaiah Mindell)

General
Complete name : Precious.DVDSCR.Blurred.XviD-TA.avi
Format : AVI
Format/Info : Audio Video Interleave
File size : 681 MiB
Duration : 1h 50mn
Overall bit rate : 864 Kbps
Writing application : VirtualDubMod 1.5.10.2 (build 2540/release)
Writing library : VirtualDub build 30091/release
Source : DEViSE

Video
ID : 0
Format : MPEG-4 Visual
Format profile : [email protected]
Format settings, BVOP : Yes
Format settings, QPel : No
Format settings, GMC : No warppoints
Format settings, Matrix : Default (H.263)
Muxing mode : Packed bitstream
Codec ID : XVID
Codec ID/Hint : XviD
Duration : 1h 50mn
Bit rate : 663 Kbps
Width : 704 pixels
Height : 384 pixels
Display aspect ratio : 16:9
Frame rate : 23.976 fps
Resolution : 24 bits
Colorimetry : 4:2:0
Scan type : Progressive
Bits/(Pixel*Frame) : 0.102
Stream size : 523 MiB (77%)
Writing library : XviD 1.2.1 (UTC 2008-12-04)

Audio
ID : 1
Format : AC-3
Format/Info : Audio Coding 3
Codec ID : 2000
Duration : 1h 49mn
Bit rate mode : Constant
Bit rate : 192 Kbps
Channel(s) : 2 channels
Channel positions : L R
Sampling rate : 48.0 KHz
Video delay : 11ms
Stream size : 151 MiB (22%)
Alignment : Split accross interleaves
Interleave, duration : 42 ms (1.00 video frame)
Interleave, preload duration : 500 ms

Screens:


http://i49.tinypic.com/24wskdj.jpg

http://i50.tinypic.com/2m2stx0.jpg

http://i47.tinypic.com/2meb85v.jpg

http://i50.tinypic.com/1p6skx.jpg


Related torrents

Torrent NameAddedSizeSeedLeechHealth
1 Year+ - in Movies832.83 MB00
1 Year+ - in Movies784.1 MB2227
1 Year+ - in Movies1.65 GB01
1 Year+ - in Music174.55 MB5849
1 Year+ - in Music386.57 MB64

Comments (0 Comments)




Please login or create a FREE account to post comments

Latest Searches

| I am a hero 1080p | mindy michelle ass | passenger german | shes all | maxim january 2011 | passion hd 2016 tits | behind blue eyes limp bizkit | Vienna Empire | IKnowThatGirl 13 07 24 Natalie Lust | gaming booster |