Quick Browse
Movies
TV shows
Music
Games
Applications
Anime
Other

Donate and Support

Friends
Torrents.me
Torrent Download
Free Movies
1337x
RARBG
Torrent Downloads

Predators (2010) (Encoded) XviD BDRip (Conster1380)


    Seeders : 0      Leechers : 0
Hash :12FC57631C0FA185512D272445F6D8CC871A3445
Added :1 Year+ by Conster1380Verified torrent uploader in Movies
Size :700.99 MB
Stream :Watch Full Movies Online @ Movie4u
Share :


Predators (2010) (Encoded) XviD BDRip (Conster1380)
Anonymous and Direct Download 300GB+ free







Warning! Do not Download Torrents Without a VPN!
Your IP Address is .   And Location is
Your Internet Provider and Government can track your torrent Activity!  Hide your IP ADDRESS with a VPN!
We Strongly Recommend Using SpyOFF Torrent VPN to Anonymize your Torrenting. It's FREE For 15 Days!

Note :

Please Update (Trackers Info) Before Downloading Torrents to See Updated Seeders And Leechers for Batter Download Speed.

Trackers List

Tracker NameLast CheckStatusSeedersLeechers




Torrent File Content (6 files)


Predators (2010) (Encoded) XviD BDRip (Conster1380)
     Predators (2010) (Encoded) XviD BDRip (Conster1380).avi -
700.99 MB

     Torrent Downloaded From 1337x.org.txt -
0 bytes

     Torrent downloaded from Demonoid.com.txt -
47 bytes

     Torrent Downloaded From Kickasstorrents.com.txt -
43 bytes

     Torrent Downloaded from Limetorrents.com.txt -
46 bytes

     Torrent Downloaded From TPB.txt -
54 bytes



Description



http://lookpic.com/d2/i2/1358/QVfSKpy6.png


::) File Info:

Video
ID : 0
Format : MPEG-4 Visual
Format profile : Advanced [email protected]
Format settings, BVOP : Yes
Format settings, QPel : No
Format settings, GMC : No warppoints
Format settings, Matrix : Default (H.263)
Muxing mode : Packed bitstream
Codec ID : XVID
Codec ID/Hint : XviD
Duration : 1h 46mn
Bit rate : 780 Kbps
Width : 640 pixels
Height : 272 pixels
Display aspect ratio : 2.35:1
Frame rate : 23.976 fps
Color space : YUV
Chroma subsampling : 4:2:0
Bit depth : 8 bits
Scan type : Progressive
Bits/(Pixel*Frame) : 0.187
Stream size : 596 MiB (85%)
Writing library : XviD 1.2.1 (UTC 2008-12-04)

Audio
ID : 1
Format : MPEG Audio
Format version : Version 1
Format profile : Layer 3
Mode : Joint stereo
Mode extension : MS Stereo
Codec ID : 55
Codec ID/Hint : MP3
Duration : 1h 46mn
Bit rate mode : Constant
Bit rate : 128 Kbps
Channel(s) : 2 channels
Sampling rate : 48.0 KHz
Stream size : 97.9 MiB (14%)
Alignment : Aligned on interleaves
Interleave, duration : 42 ms (1.00 video frame)
Interleave, preload duration : 504 ms

Source: Predators (2010) BDRip - DUBBY - (Big Thanks Mate! :P )

:D Screenshots:

http://i51.tinypic.com/ra24aw.png


http://i52.tinypic.com/23jl2qh.png


http://i54.tinypic.com/678mmq.jpg


8) Alternative Screenshots:
:) [url]http://i51.tinypic.com/ra24aw.png[/url]
:) [url]http://i52.tinypic.com/23jl2qh.png[/url]
:) [url]http://i54.tinypic.com/678mmq.jpg[/url]

:-X Uploader's Comments:
Hello folks! This is my first release! I've got 38 peeps downloading this within 1 hour, Pretty good for my first upload don't you think? Anyway, I didn't really need to mess with much here, Everything was pretty much cool, Just added some brightness and contrast here and there, Ran a few more filters, It really doesn't get better than this! Enjoy!! :D

;D Greetz To: SAFCuk009 + Fabreezy + Noir + IMAGiNE + PrisM + aAF + KiNGDOM + FXG + EVERYBODY THAT SERVES THE TORRENT COMMUNITY!! :o

Related torrents

Torrent NameAddedSizeSeedLeechHealth
1 Year+ - in Movies695 MB13
1 Year+ - in Movies1.37 GB00
1 Year+ - in Movies3.94 GB124
1 Year+ - in Movies11.55 GB100
1 Year+ - in Movies7.94 GB00

Comments (0 Comments)




Please login or create a FREE account to post comments

Latest Searches

| Nicole Vice Vanessa Decker | type discography | Cherry Jul Cherry Jul Heart shaped ass trophy XXX 720p pornalized com mpeg | Kontakt 5 5 6 8 | KABALI | thora birch sexy | 2160p 4K UHD HDR 10bit BluRay 5 1 x265 HEVC MZABI | xama | 9 black problems | Cant Hold Us I |