Quick Browse
Movies
TV shows
Music
Games
Applications
Anime
Other

Donate and Support

Friends
Torrents.me
Torrent Download
Free Movies
1337x
RARBG
Torrent Downloads

Verified torrent Prema Kavali(2011) Telugu 1 CD HDRIP X264 [email protected]


    Seeders : 1      Leechers : 59
Hash :CE30B21CECF02DF4570B21167823148E2E1A453D
Added :1 Year+ by mastitorrentsVerified torrent uploader in Movies
Size :688.28 MB
Stream :Watch Full Movies Online @ Movie4u
Share :


Prema Kavali(2011) Telugu 1 CD HDRIP X264 [email protected]
Anonymous and Direct Download 300GB+ free







Warning! Do not Download Torrents Without a VPN!
Your IP Address is .   And Location is
Your Internet Provider and Government can track your torrent Activity!  Hide your IP ADDRESS with a VPN!
We Strongly Recommend Using SpyOFF Torrent VPN to Anonymize your Torrenting. It's FREE For 15 Days!

Note :

Please Update (Trackers Info) Before Downloading Torrents to See Updated Seeders And Leechers for Batter Download Speed.

Trackers List

Tracker NameLast CheckStatusSeedersLeechers




Torrent File Content (2 files)


Prema Kavali(2011) 1 CD HDRIP X264 MP3(www.mastitorrents.com)
     Prema Kavali(2011) 1 CD HDRIP X264 MP3(www.mastitorrents.com).mp4 -
688.28 MB

     www.mastitorrents.com.txt -
538 bytes



Description



[color=red][font=Georgia]mastitorrents.com

http://mastitorrents.com/forums/index.php

Banner: Max India Productions
Cast: Aadi, Isha Chawla, Brahmanandam, Dev Gill, Sindhu Tolani, Naga Babu, Jayasudha and others
Music: Anup Rubens
Cinematography: Chota K Naidu
Editing: Goutham Raju
Story, screenplay, direction: K Vijayabhaskar
Producer: K Atchi Reddy
Release date: 25/02/2011

Format : MPEG-4
Format profile : Base Media / Version 2
Codec ID : mp42
File size : 688 MiB
Duration : 2h 25mn
Overall bit rate : 661 Kbps
Encoded date : UTC 2011-05-12 03:39:15
Tagged date : UTC 2011-05-12 05:28:23
Writing application : HandBrake 0.9.5 2011010300
Video ID : 1
Format : AVC
Format/Info : Advanced
Video Codec Format profile : [email protected]
Format settings, CABAC : Yes
Format settings, ReFrames : 4 frames
Codec ID : avc1
Codec ID/Info : Advanced
Video Coding Duration : 2h 25mn
Bit rate mode : Variable
Bit rate : 510 Kbps
Width : 638 pixels
Height : 262 pixels
Display aspect ratio : 2.40:1
Original display aspect ratio : 2.40:1
Frame rate mode : Constant
Frame rate : 15.000 fps Color space : YUV Chroma subsampling : 4:2:0 Bit depth : 8 bits Scan type : Progressive Bits/(Pixel*Frame) : 0.203 Stream size : 532 MiB (77%)
Writing library : x264 core 112
Encoded date : UTC 2011-05-12 03:39:15 Tagged date : UTC 2011-05-12 05:28:23
Color primaries : BT.601-6 525, BT.1358 525, BT.1700 NTSC, SMPTE 170M
Transfer characteristics : BT.709-5, BT.1361 Matrix coefficients : BT.601-6 525, BT.1358 525, BT.1700 NTSC, SMPTE 170M Audio ID : 2 Format : MPEG
Audio Format version : Version 2
Format profile : Layer 3 Codec ID : 69
Duration : 2h 25mn
Bit rate mode : Variable
Bit rate : 148 Kbps
Maximum bit rate : 159 Kbps
Channel(s) : 1 channel
Sampling rate : 22.05 KHz
Compression mode : Lossy
Stream size : 154 MiB (22%)
Encoded date : UTC 2011-05-12 03:39:15
Tagged date : UTC 2011-05-12 05:28:22
[/font][/color]

http://www.maxupload.net/images/71218166380160382268.jpg

http://www.maxupload.net/images/00400456786974683360.jpg

http://www.maxupload.net/images/04575913807739855860.jpg

http://www.maxupload.net/images/70629445552510183038.jpg

http://www.maxupload.net/images/58070042916685165312.jpg

http://www.maxupload.net/images/53789403675278385308.jpg

Related torrents

Torrent NameAddedSizeSeedLeechHealth
1 Year+ - in Movies688.28 MB17
1 Year+ - in Music299.94 MB121
Verified torrent
1 Year+ - in Movies739.53 MB00
1 Year+ - in Movies705.76 MB00
Verified torrent
1 Year+ - in Movies707.27 MB32

Comments (0 Comments)




Please login or create a FREE account to post comments

Latest Searches

| robbie williams seasons | Jarhead 2 Field of Fire 2014 dual audio | my stepdad fuck | Nocturnal Animals 2016 1080p BluRay 6CH 2 2GB ShAaNiG | peter bjorn john dig a little deeper | THE ARTIST FRE | Call of Duty Black Ops III Zombies Chronicles | Joymii Cayla Lyons Super Sexy Blonde | Panteras Louco Desejo Entre Irmaos avi | MacOsx iso |