Quick Browse
Movies
TV shows
Music
Games
Applications
Anime
Other

Donate and Support

Friends
Torrents.me
Torrent Download
Free Movies
1337x
RARBG
Torrent Downloads

Verified torrent Prey (2007) DVDRip Dual Audio [Hindi-Eng]@Mastitorrents


    Seeders : 1      Leechers : 6
Hash :03A266AA75F642B7554C68AB7392FA3198CA1BD3
Added :1 Year+ by mastitorrentsVerified torrent uploader in Movies
Size :469.93 MB
Stream :Watch Full Movies Online @ Movie4u
Share :


Prey (2007) DVDRip Dual Audio [Hindi-Eng]@Mastitorrents
Anonymous and Direct Download 300GB+ free







Warning! Do not Download Torrents Without a VPN!
Your IP Address is .   And Location is
Your Internet Provider and Government can track your torrent Activity!  Hide your IP ADDRESS with a VPN!
We Strongly Recommend Using SpyOFF Torrent VPN to Anonymize your Torrenting. It's FREE For 15 Days!

Note :

Please Update (Trackers Info) Before Downloading Torrents to See Updated Seeders And Leechers for Batter Download Speed.

Trackers List

Tracker NameLast CheckStatusSeedersLeechers




Torrent File Content (4 files)


Prey (2007) DVDRip Dual Audio [Hin-Eng](www.mastitorrents.com)
     www.mastitorrents.com.txt -
321 bytes

     Prey (2007) DVDRip Dual Audio [Hin-Eng](www.mastitorrents.com).mkv -
462.08 MB

     Catch Us On Facebook.txt -
133 bytes

     Prey 2007 DVDRip Sample.mkv -
7.85 MB



Description



[color=red][font=Georgia]mastitorrents.com

http://mastitorrents.com/forums/index.php

File size : 462 MiB
Duration : 1h 24mn
Overall bit rate : 765 Kbps Encoded date : UTC 2011-12-25 13:38:34
Writing application : mkvmerge v4.7.0 ('Just Like You Imagined') built on Apr 21 2011 01:13:14
Writing library : libebml v1.2.0 + libmatroska v1.1.0 Video
ID : 1
Format : AVC
Format/Info : Advanced Video Codec
Format profile : [email protected]
Format settings, CABAC : Yes
Format settings, ReFrames : 3 frames
Muxing mode : Container [email protected]
Codec ID : V_MPEG4/ISO/AVC
Duration : 1h 24mn
Bit rate : 558 Kbps
Width : 800 pixels
Height : 334 pixels
Display aspect ratio : 2.35:1
Frame rate : 25.000 fps
Resolution : 24 bits
Colorimetry : 4:2:0
Scan type : Progressive
Bits/(Pixel*Frame) : 0.083
Stream size : 337 MiB (73%)
Title : imkhan
Writing library : x264 core 104 r1683 62997d6
Encoding settings : cabac=1 / ref=3 / deblock=1:0:0 / analyse=0x3:0x133 / me=umh / subme=7 / psy=1 / psy_rd=1.00:0.00 / mixed_ref=1 / me_range=16 / chroma_me=1 / trellis=1 / 8x8dct=1 / cqm=0 / deadzone=21,11 / fast_pskip=1 / chroma_qp_offset=-2 / threads=6 / sliced_threads=0 / nr=0 / decimate=1 / interlaced=0 / constrained_intra=0 / bframes=3 / b_pyramid=0 / b_adapt=1 / b_bias=0 / direct=1 / weightb=1 / open_gop=0 / weightp=2 / keyint=250 / keyint_min=25 / scenecut=40 / intra_refresh=0 / rc_lookahead=40 / rc=crf / mbtree=1 / crf=22.0 / qcomp=0.60 / qpmin=10 / qpmax=51 / qpstep=4 / vbv_maxrate=700 / vbv_bufsize=700 / crf_max=0.0 / ip_ratio=1.40 / aq=1:1.00 / nal_hrd=none
Language : Hindi
Audio #1
ID : 2
Format : MPEG Audio
Format version : Version 1
Format profile : Layer 3
Codec ID : A_MPEG/L3
Codec ID/Hint : MP3
Duration : 1h 24mn
Bit rate mode : Constant
Bit rate : 96.0 Kbps
Channel(s) : 2 channels
Sampling rate : 44.1 KHz
Resolution : 16 bits
Stream size : 58.0 MiB (13%)
Title : imkhan
Writing library : LAME3.98.2
Language : Hindi
Audio #2
ID : 3
Format : MPEG Audio
Format version : Version 1
Format profile : Layer 3
Codec ID : A_MPEG/L3
Codec ID/Hint : MP3
Duration : 1h 24mn
Bit rate mode : Constant
Bit rate : 96.0 Kbps
Channel(s) : 2 channels
Sampling rate : 44.1 KHz
Resolution : 16 bits
Stream size : 58.0 MiB (13%)
Title : imkhan
Writing library : LAME3.98.2
[/font][/color]

http://picturestack.com/150/205/s2nprey2007dvvjl.jpg

http://picturestack.com/150/205/2pr2vWc.jpg

http://picturestack.com/150/205/bNn3x9k.jpg

http://picturestack.com/150/205/mIa4am8.jpg

http://picturestack.com/150/205/SLX5PUu.jpg

http://picturestack.com/150/205/fPj66b8.jpg

http://picturestack.com/150/205/jtn7xCm.jpg

http://picturestack.com/150/205/wJF8wiK.jpg

http://picturestack.com/150/205/JLt9x2Y.jpg

http://picturestack.com/150/205/hD110xDm.jpg

Related torrents

Torrent NameAddedSizeSeedLeechHealth
1 Year+ - in Movies519.91 MB122
Verified torrent
1 Year+ - in Movies854.95 MB03
Verified torrent
1 Year+ - in Movies550.91 MB18
Verified torrent
1 Year+ - in Movies611.28 MB00
Verified torrent
1 Year+ - in Movies640.3 MB21

Comments (0 Comments)




Please login or create a FREE account to post comments

Latest Searches

| Web Max 7 6 8 6 | Heather Starlet And Her | man of the year 2006 | g herbo j | tweek sity | how to get away with murder s01e08 web | talespin complete series dvdrip | 6 Bullets Jean Claude Van Damme 2012 | bob dylan bob johnny cash | moana 2016 ac3 |