Quick Browse
Movies
TV shows
Music
Games
Applications
Anime
Other
Facebook
Advertising

Friends
Torrent Download
Movie4u
1337x.to
Torrent Downloads




Verified torrent Priest 2011 CAM XViD


    Seeders : 1      Leechers : 0
Hash :095128A4689842A1A6A0B4E2530EE2458F2EE22D
Added :1 Year+ by milsanaup1Verified torrent uploader in Movies
Size :1.12 GB
Stream :WATCH ONLINE @ Movie4u


Priest 2011 CAM XViD
Free and Fast Download with Usenet 300GB+ free







Trackers List

Tracker NameLast CheckStatusSeedersLeechers




Torrent File Content (4 files)


Priest 2011 CAM XViD
     Priest 2011 CAM XViD.avi -
1.12 GB

     Sample.avi -
3.64 MB

     Help.txt -
1.32 KB

     Torrent downloaded from Demonoid.me.txt -
46 bytes



Description



http://www.onlinemoviess.in/wp-content/uploads/2011/05/priest_movie_poster_02.jpg





Format : AVI
Format/Info : Audio Video Interleave
File size : 1.12 GiB
Duration : 1h 20mn
Overall bit rate : 1 999 Kbps
Writing library : VirtualDub build 32839/release

Video
ID : 0
Format : MPEG-4 Visual
Format profile : Advanced [email protected]
Format settings, BVOP : Yes
Format settings, QPel : No
Format settings, GMC : No warppoints
Format settings, Matrix : Custom
Codec ID : XVID
Codec ID/Hint : XviD
Duration : 1h 20mn
Bit rate : 1 861 Kbps
Width : 692 pixels
Height : 324 pixels
Display aspect ratio : 2.2:1
Frame rate : 25.000 fps
Color space : YUV
Chroma subsampling : 4:2:0
Bit depth : 8 bits
Scan type : Progressive
Bits/(Pixel*Frame) : 0.332
Stream size : 1.04 GiB (93%)
Writing library : XviD 1.2.1 (UTC 2008-12-04)

Audio
ID : 1
Format : MPEG Audio
Format version : Version 1
Format profile : Layer 3
Mode : Joint stereo
Codec ID : 55
Codec ID/Hint : MP3
Duration : 1h 20mn
Bit rate mode : Constant
Bit rate : 128 Kbps
Channel(s) : 2 channels
Sampling rate : 44.1 KHz
Stream size : 73.4 MiB (6%)
Alignment : Split accross interleaves
Interleave, duration : 40 ms (1.00 video frame)
Interleave, preload duration : 500 ms
Writing library : LAME3.98r
Encoding settings : -m j -V 4 -q 2 -lowpass 17 -b 128

Related torrents

Torrent NameAddedSizeSeedLeechHealth
1 Year+ - in Movies943.19 MB00
1 Year+ - in Movies400.9 MB10
2 Comments
2 Good
1 Year+ - in Movies943.19 MB00
1 Year+ - in Movies695.99 MB00
1 Year+ - in Movies765.23 MB0199

Comments (0 Comments)




Please login or create a FREE account to post comments

Latest Searches

| irina donell | 2 Broke Girls And the Kickstarter | t rex bang gong get it on | lela delights | Brandi Love Widow Whammy | vikings bricocine | Katya Clover hd | Windows 10 x64 december 2016 | three days christmas | Keiran lee xxx |