Quick Browse
Movies
TV shows
Music
Games
Applications
Anime
Other

Donate and Support

Friends
Torrents.me
Torrent Download
Free Movies
1337x
RARBG
Torrent Downloads

Verified torrent Priest 2011 R5 LiNE AC3 XViD-EP1C


    Seeders : 0      Leechers : 0
Hash :DB3F5EA950B1056E5B089C0905CC59E0CD6E921A
Added :1 Year+ by memory100Verified torrent uploader in Movies
Size :1.38 GB
Stream :Watch Full Movies Online @ Movie4u
Share :


Priest 2011 R5 LiNE AC3 XViD-EP1C
Anonymous and Direct Download 300GB+ free







Warning! Do not Download Torrents Without a VPN!
Your IP Address is .   And Location is
Your Internet Provider and Government can track your torrent Activity!  Hide your IP ADDRESS with a VPN!
We Strongly Recommend Using SpyOFF Torrent VPN to Anonymize your Torrenting. It's FREE For 15 Days!

Note :

Please Update (Trackers Info) Before Downloading Torrents to See Updated Seeders And Leechers for Batter Download Speed.

Trackers List

Tracker NameLast CheckStatusSeedersLeechers




Torrent File Content (10 files)


Priest.2011.R5.LiNE.AC3.XViD-EP1C
     Budget seedboxs.txt -
44 bytes

     NW RG.nfo -
12.96 KB

     Priest.2011.R5.LiNE.AC3.XViD-EP1C.avi -
1.37 GB

     Priest.2011.R5.LiNE.AC3.XViD-EP1C.nfo -
3.52 KB

     Sample.avi -
10.04 MB

     Torrent downloaded from Demonoid.me.txt -
46 bytes

     dreamthe.net.txt -
91 bytes

     dvd5.png -
99.93 KB

     northernwarriors.net.txt -
135 bytes

     sceneunderground.org.txt -
77 bytes



Description



http://img15.imageshack.us/img15/1508/priestd.jpg

[code]
::File:: Priest.2011.R5.LiNE.AC3.XViD-EP1C
::Video Source:: Pastyr.2011.DVD5
::Audio Source:: Own
::Language:::::: English
::IMDB:::::::::: http://www.imdb.com/title/tt0822847/

A priest disobeys church law to track down the vampires who kidnapped his niece.
::Specs:::::::::

Format : AVI
Format/Info : Audio Video Interleave
File size : 1.37 GiB
Duration : 1h 23mn
Overall bit rate : 2 338 Kbps
Writing application : VirtualDubMod 1.5.10.2 (build 2540/release)
Writing library : VirtualDubMod build 2540/release



Video
ID : 0
Format : MPEG-4 Visual
Format profile : Advanced [email protected]
Format settings, BVOP : Yes
Format settings, QPel : No
Format settings, GMC : No warppoints
Format settings, Matrix : Custom
Codec ID : XVID
Codec ID/Hint : XviD
Duration : 1h 23mn
Bit rate : 1 880 Kbps
Width : 720 pixels
Height : 304 pixels
Display aspect ratio : 2.35:1
Frame rate : 25.000 fps
Color space : YUV
Chroma subsampling : 4:2:0
Bit depth : 8 bits
Scan type : Progressive
Bits/(Pixel*Frame) : 0.344
Stream size : 1.10 GiB (80%)
Writing library : XviD 58

Audio
ID : 1
Format : AC-3
Format/Info : Audio Coding 3
Mode extension : CM (complete main)
Codec ID : 2000
Duration : 1h 23mn
Bit rate mode : Constant
Bit rate : 448 Kbps
Channel(s) : 6 channels
Channel positions : Front: L C R, Side: L R, LFE
Sampling rate : 48.0 KHz
Bit depth : 16 bits
Video delay : 16ms
Stream size : 268 MiB (19%)
Alignment : Split accross interleaves
Interleave, duration : 40 ms (1.00 video frame)
Interleave, preload duration : 500 ms
[/code]
Screens:
http://www.leetleech.org/images/88732112005768284656.png

http://www.leetleech.org/images/77894778091980640339.png

http://www.leetleech.org/images/02353930459829650298.png

http://www.leetleech.org/images/74049847285213978894.png

Related torrents

Torrent NameAddedSizeSeedLeechHealth
1 Year+ - in Movies1.38 GB00
1 Comments
1 Good
Verified torrent
1 Year+ - in Movies1.38 GB286114
1 Year+ - in Movies1.38 GB01
1 Year+ - in Movies1.38 GB00
1 Year+ - in Movies1.38 GB00

Comments (0 Comments)




Please login or create a FREE account to post comments

Latest Searches

| czech public big tits | payphone maroon 5 lyric | dubioza kolektiv u s a | Talia Mint my ecstasy | House of Cards Sezon 5 napisy | collide 1080p bluray x264 dts jyk | Talia Mint chic | 01 12 2011 | Resident Evil 2017 720 | x265 1080p 10bit mzabi john wick |