Quick Browse
Movies
TV shows
Music
Games
Applications
Anime
Other

Donate and Support

Friends
Torrents.me
Torrent Download
Free Movies
1337x
RARBG
Torrent Downloads

Verified torrent Priest 2011 R5 LiNE XviD - IMAGiNE [NO RAR](NEW AUDIO)


    Seeders : 1      Leechers : 0
Hash :58A6577340CE0992DFA26DCF44D94B82CED7B906
Added :1 Year+ by memory100Verified torrent uploader in Movies
Size :1.38 GB
Stream :Watch Full Movies Online @ Movie4u
Share :


Priest 2011 R5 LiNE XviD - IMAGiNE [NO RAR](NEW AUDIO)
Anonymous and Direct Download 300GB+ free







Warning! Do not Download Torrents Without a VPN!
Your IP Address is .   And Location is
Your Internet Provider and Government can track your torrent Activity!  Hide your IP ADDRESS with a VPN!
We Strongly Recommend Using SpyOFF Torrent VPN to Anonymize your Torrenting. It's FREE For 15 Days!

Note :

Please Update (Trackers Info) Before Downloading Torrents to See Updated Seeders And Leechers for Batter Download Speed.

Trackers List

Tracker NameLast CheckStatusSeedersLeechers




Torrent File Content (9 files)


Priest 2011 R5 LiNE XviD - IMAGiNE
     Budget seedboxs.txt -
44 bytes

     NW RG.nfo -
12.96 KB

     Priest 2011 R5 LiNE XviD - IMAGiNE SAMPLE.avi -
14.57 MB

     Priest 2011 R5 LiNE XviD - IMAGiNE.avi -
1.37 GB

     Priest 2011 R5 LiNE XviD - IMAGiNE.nfo -
4.83 KB

     Torrent downloaded from Demonoid.me.txt -
46 bytes

     dreamthe.net.txt -
91 bytes

     northernwarriors.net.txt -
135 bytes

     sceneunderground.org.txt -
77 bytes



Description



http://img822.imageshack.us/img822/9082/priesty.jpg

[code]
Priest 2011 R5 LiNE XviD - IMAGiNE

Ripper ...........: IMAGiNE IMDB Rating.......:5.6/10
Video Codec.......: XVID Release Date......:02/06/11
Audio Codec.......:MP3 Theatre Date......:13/05/11
Audio Bitrate.....:128 Runtime.......:1h 23mn
Subtitles.........:NIL Language..........:ENGLISH
Resolution...... 720 x 304 IMDb URL.......... http://www.imdb.com/title/tt0822847/

DETAILS:

Video
ID : 0
Format : MPEG-4 Visual
Format profile : Advanced [email protected]
Format settings, BVOP : 2
Format settings, QPel : No
Format settings, GMC : No warppoints
Format settings, Matrix : Default (MPEG)
Muxing mode : Packed bitstream
Codec ID : XVID
Codec ID/Hint : XviD
Duration : 1h 23mn
Bit rate : 2 204 Kbps
Width : 720 pixels
Height : 304 pixels
Display aspect ratio : 2.35:1
Frame rate : 25.000 fps
Color space : YUV
Chroma subsampling : 4:2:0
Bit depth : 8 bits
Scan type : Progressive
Compression mode : Lossy
Bits/(Pixel*Frame) : 0.403
Stream size : 1.29 GiB (94%)
Writing library : XviD 61

Audio
ID : 1
Format : MPEG Audio
Format version : Version 1
Format profile : Layer 3
Mode : Joint stereo
Codec ID : 55
Codec ID/Hint : MP3
Duration : 1h 23mn
Bit rate mode : Constant
Bit rate : 128 Kbps
Channel(s) : 2 channels
Sampling rate : 44.1 KHz
Compression mode : Lossy
Stream size : 76.7 MiB (5%)
Alignment : Split accross interleaves
Interleave, duration : 40 ms (1.00 video frame)
Writing library : LAME3.98r

Plot:
A priest disobeys church law to track down the vampires who kidnapped his niece.

SOURCES:
VIDEO: ......... Pastyr.2011.DVD-5.ELEKTRI4KA Thanx
AUDIO: ......... Thanx Matey

NOTES:
IMAGiNE bringing you another release..........
Priest R5..........
Ok here we are with our take on Priest...
Source was nice so not much work was needed...
So we made a script to crop resize and so on...
Audio is new, very nice LiNE we synced and remuxed to our encode...
That pretty much sums it up so...

Enjoy Folks!
[/code]
Screens:
http://img851.imageshack.us/img851/8683/32846061.jpg

http://img707.imageshack.us/img707/7858/69252805.jpg

http://img861.imageshack.us/img861/7918/78749693.jpg

http://img860.imageshack.us/img860/1985/95515337.jpg

http://img822.imageshack.us/img822/2346/79088059.jpg

Related torrents

Torrent NameAddedSizeSeedLeechHealth
1 Year+ - in Movies1.38 GB1139
1 Year+ - in Movies1.39 GB3174
Last Month - in Other705.07 MB00
Verified torrent
1 Year+ - in Movies1.39 GB11
1 Year+ - in Movies350.35 MB10

Comments (0 Comments)




Please login or create a FREE account to post comments

Latest Searches

| Pierced Nipples On Teen Spinner | VLC player professional | adult images | faketaxi redhead from netherlands | cum filled asshole | Convert XLS | J Tutt | Red State 2011 BRRip NL subs DutchReleaseTeam Horror | Bailey Brooke Punish s | yoshimori |