Quick Browse
Movies
TV shows
Music
Games
Applications
Anime
Other

Donate and Support

Friends
Torrents.me
Torrent Download
Free Movies
1337x
RARBG
Torrent Downloads

Verified torrent Priest 2011 RENCODED SCAM Dual Audio Hindi-English XVID AC3 Striker WBZ


    Seeders : 1      Leechers : 4
Hash :9FCE95C9E9F034B20A3B0FEC826B59FE183D3313
Added :1 Year+ by striker123Verified torrent uploader in Movies
Size :1.48 GB
Stream :Watch Full Movies Online @ Movie4u
Share :








Warning! Do not Download Torrents Without a VPN!
Your IP Address is .   And Location is
Your Internet Provider and Government can track your torrent Activity!  Hide your IP ADDRESS with a VPN!
We Strongly Recommend Using SpyOFF Torrent VPN to Anonymize your Torrenting. It's FREE For 15 Days!

Note :

Please Update (Trackers Info) Before Downloading Torrents to See Updated Seeders And Leechers for Batter Download Speed.

Trackers List

Tracker NameLast CheckStatusSeedersLeechers




Torrent File Content (18 files)


Priest 2011 RENCODED SCAM Dual Audio Hindi-English XVID AC3 Striker WBZ
    Screens
          15.jpg -
39.87 KB

          11.jpg -
29.53 KB

          7.jpg -
29.43 KB

          9.jpg -
28.58 KB

          13.jpg -
26.57 KB

          10.jpg -
25.66 KB

          12.jpg -
24.01 KB

          14.jpg -
22.18 KB

          2.jpg -
22.11 KB

          3.jpg -
18.86 KB

          6.jpg -
16.14 KB

          5.jpg -
16.13 KB

          8.jpg -
15.96 KB

          1.jpg -
14.82 KB

          4.jpg -
14.57 KB

     Priest 2011 RENCODED SCAM Dual Audio Hindi-English XVID AC3 Striker WBZ.avi -
1.46 GB

     sample.avi -
18.24 MB

     A WareZBoyZ Release......txt -
0 bytes



Description



http://pic.phyrefile.com/s/sh/shahaz/2011/05/12/wbz3d.png


http://pic.phyrefile.com/s/sh/shahaz/2011/05/19/priest.png


[color="#FF0000"][size="4"]INFO.................[/size][/color]
Format : AVI
Format/Info : Audio Video Interleave
File size : 1.46 GiB
Duration : 1h 20mn
Overall bit rate : 2 605 Kbps


Video
ID : 0
Format : MPEG-4 Visual
Format profile : Advanced [email protected]
Format settings, BVOP : 2
Format settings, QPel : Yes
Format settings, GMC : No warppoints
Format settings, Matrix : Default (H.263)
Codec ID : XVID
Codec ID/Hint : XviD
Duration : 1h 20mn
Bit rate : 1 698 Kbps
Width : 640 pixels
Height : 304 pixels
Display aspect ratio : 2.2:1
Frame rate : 25.000 fps
Color space : YUV
Chroma subsampling : 4:2:0
Bit depth : 8 bits
Scan type : Progressive
Compression mode : Lossy
Bits/(Pixel*Frame) : 0.349
Stream size : 973 MiB (65%)
Writing library : XviD 1.2.1 (UTC 2008-12-04)


Audio #1
ID : 1
Format : AC-3
Format/Info : Audio Coding 3
Mode extension : CM (complete main)
Codec ID : 2000
Duration : 1h 20mn
Bit rate mode : Constant
Bit rate : 448 Kbps
Channel(s) : 2 channels
Channel positions : Front: L R
Sampling rate : 48.0 KHz
Bit depth : 16 bits
Compression mode : Lossy
Stream size : 257 MiB (17%)
Alignment : Aligned on interleaves
Interleave, duration : 64 ms (1.60 video frames)
Interleave, preload duration : 192 ms
Title : English-Striker[WBZ]

Audio #2
ID : 2
Format : AC-3
Format/Info : Audio Coding 3
Mode extension : CM (complete main)
Codec ID : 2000
Duration : 1h 20mn
Bit rate mode : Constant
Bit rate : 448 Kbps
Channel(s) : 2 channels
Channel positions : Front: L R
Sampling rate : 48.0 KHz
Bit depth : 16 bits
Compression mode : Lossy
Stream size : 257 MiB (17%)
Alignment : Aligned on interleaves
Interleave, duration : 64 ms (1.60 video frames)
Interleave, preload duration : 192 ms
Title : Hindi-Striker[WBZ]





[color="#FF0000"][size="4"]SCREENS.................[/size][/color]



http://pic.phyrefile.com/s/sh/shahaz/2011/05/19/1_003.jpg

http://pic.phyrefile.com/s/sh/shahaz/2011/05/19/2_003.jpg

http://pic.phyrefile.com/s/sh/shahaz/2011/05/19/3_003.jpg

http://pic.phyrefile.com/s/sh/shahaz/2011/05/19/4_003.jpg

http://pic.phyrefile.com/s/sh/shahaz/2011/05/19/5_003.jpg

http://pic.phyrefile.com/s/sh/shahaz/2011/05/19/6_003.jpg

http://pic.phyrefile.com/s/sh/shahaz/2011/05/19/7_003.jpg

http://pic.phyrefile.com/s/sh/shahaz/2011/05/19/8_003.jpg

http://pic.phyrefile.com/s/sh/shahaz/2011/05/19/9_003.jpg

http://pic.phyrefile.com/s/sh/shahaz/2011/05/19/10_003.jpg

http://pic.phyrefile.com/s/sh/shahaz/2011/05/19/11_003.jpg

http://pic.phyrefile.com/s/sh/shahaz/2011/05/19/12_003.jpg

http://pic.phyrefile.com/s/sh/shahaz/2011/05/19/13_003.jpg

http://pic.phyrefile.com/s/sh/shahaz/2011/05/19/14_003.jpg

http://pic.phyrefile.com/s/sh/shahaz/2011/05/19/15_003.jpg




[color="#FF0000"][size="4"]SOURCE:

VIDEO:Priest READNFO CAM XViD - IMAGiNE

AUDIO:Priest 2011 SCAM Rip Dual Audio ( Eng Hindi ) x264 NiCkkkDoN...THANKS!!!!

AUDIO HAS BEEN CLEANED....

AND ADDED SOME FILTERS TO IMPROVE QUALITY.....
[/size][/color]

Related torrents

Torrent NameAddedSizeSeedLeechHealth
1 Year+ - in Movies1.92 GB10
Verified torrent
1 Year+ - in Movies243.66 MB2515
3 days ago - in Movies849.7 MB00
1 Year+ - in Movies3.5 GB00
1 Year+ - in Movies4.4 GB10

Comments (0 Comments)




Please login or create a FREE account to post comments

Latest Searches

| adobe lightroom 8 | spm | kill more | 201 avi nl subs | Xstoryplayer christmas | Neuroscience for Basic and Clinical Applications | Big Ass | Rehabilitation Dragon Ball H | FemdomEmpire Consumed by Ass 1080p | abh toh aaja |