Quick Browse
Movies
TV shows
Music
Games
Applications
Anime
Other

Donate and Support

Friends
Torrents.me
Torrent Download
Free Movies
1337x
RARBG
Torrent Downloads

Verified torrent Priest READNFO CAM XViD - IMAGiNE


    Seeders : 1      Leechers : 15
Hash :E218E3783F0E97913A839572CE55150044F43854
Added :1 Year+ by memory100Verified torrent uploader in Movies
Size :1.41 GB
Stream :Watch Full Movies Online @ Movie4u
Share :


Priest READNFO CAM XViD - IMAGiNE
Anonymous and Direct Download 300GB+ free







Warning! Do not Download Torrents Without a VPN!
Your IP Address is .   And Location is
Your Internet Provider and Government can track your torrent Activity!  Hide your IP ADDRESS with a VPN!
We Strongly Recommend Using SpyOFF Torrent VPN to Anonymize your Torrenting. It's FREE For 15 Days!

Note :

Please Update (Trackers Info) Before Downloading Torrents to See Updated Seeders And Leechers for Batter Download Speed.

Trackers List

Tracker NameLast CheckStatusSeedersLeechers




Torrent File Content (10 files)


Priest READNFO CAM XViD - IMAGiNE
     Budget seedboxs.txt -
44 bytes

     NW RG.nfo -
12.96 KB

     Priest READNFO CAM XViD - IMAGiNE.NFO -
5.83 KB

     Priest READNFO CAM XViD - IMAGiNE.avi -
1.37 GB

     Priest READNFO CAM XViD - SAMPLE DARK.avi -
15.92 MB

     Priest READNFO CAM XViD - SAMPLE LIGHT.avi -
19.19 MB

     Torrent downloaded from Demonoid.me.txt -
46 bytes

     northernwarriors.net.txt -
135 bytes

     sceneunderground.org.txt -
77 bytes

     visiontracker.net.txt -
91 bytes



Description



http://img694.imageshack.us/img694/320/posterbed.jpg

Priest READNFO CAM XViD - IMAGiNE
[code]
Ripper ...........: IMAGiNE IMDB Rating.......:6.0/10
Video Codec.......: XVID Release Date......:10/05/11
Audio Codec.......:MP3 Theatre Date......:06/05/11
Audio Bitrate.....:128 Runtime.......:1h 20mn
Subtitles.........:NIL Language..........:ENGLISH
Resolution...... 720 x 336 IMDb URL.......... http://www.imdb.com/title/tt0822847/

DETAILS:

Video
ID : 0
Format : MPEG-4 Visual
Format profile : Advanced [email protected]
Format settings, BVOP : 2
Format settings, QPel : No
Format settings, GMC : No warppoints
Format settings, Matrix : Default (MPEG)
Muxing mode : Packed bitstream
Codec ID : XVID
Codec ID/Hint : XviD
Duration : 1h 20mn
Bit rate : 2 312 Kbps
Width : 720 pixels
Height : 336 pixels
Display aspect ratio : 2.2:1
Frame rate : 25.000 fps
Color space : YUV
Chroma subsampling : 4:2:0
Bit depth : 8 bits
Scan type : Progressive
Compression mode : Lossy
Bits/(Pixel*Frame) : 0.382
Stream size : 1.29 GiB (94%)
Writing library : XviD 61

Audio
ID : 1
Format : MPEG Audio
Format version : Version 1
Format profile : Layer 3
Mode : Joint stereo
Codec ID : 55
Codec ID/Hint : MP3
Duration : 1h 20mn
Bit rate mode : Constant
Bit rate : 128 Kbps
Channel(s) : 2 channels
Sampling rate : 44.1 KHz
Compression mode : Lossy
Stream size : 73.4 MiB (5%)
Alignment : Split accross interleaves
Interleave, duration : 40 ms (1.00 video frame)
Interleave, preload duration : 500 ms
Writing library : LAME3.98r
Encoding settings : -m j -V 4 -q 2 -lowpass 17 -b 128

Plot:
A priest disobeys church law to track down the vampires who kidnapped his niece.

SOURCES:
VIDEO:KINOPARK PROPER ... Thanks
AUDIO:Thanks m8ty

NOTES:
IMAGiNE bringing you another release..........Priest

Ok guys heres our first release of priest and at the moment its the best source we've got out the two files given.

The film is cammed in a 3D showing so thats a big no no straight away....also there is loads of camera movement aswell as the normal issue of contrast,colouring and interlace issues.

Well firstly we cut the file up to 8 pieces and cropped,rotated and filtered each part....but by doing so the AR is off in some places becuase we needed to keep the same res to be able to append all pieces back together.

Now the colouring we've filtered and lowered alot ....seemed to make the 3D effect not as bad,also changed the contrast and birghtness etc....

The interlace issue however we managed to clean up alot but it was encode wrong to start with so makes it near impossbile to remove....its nothing major but you'll see what we mean.
Audio for the time being is cam as thats all we could get,but its pretty decent cam ....heard alot worse before so.
Inc two sample from dark and light scenes so you get the idea of the full quality of it.

Enjoy folks
[/code]
Screens:
http://img825.imageshack.us/img825/6500/15887539.jpg

http://img215.imageshack.us/img215/4430/26927913.jpg

http://img835.imageshack.us/img835/9652/32034681.jpg

http://img848.imageshack.us/img848/3754/46624832.jpg

http://img849.imageshack.us/img849/1590/27764028.jpg

http://img199.imageshack.us/img199/6048/83783997.jpg

Related torrents

Torrent NameAddedSizeSeedLeechHealth
1 Year+ - in Movies1.41 GB00
1 Year+ - in Movies1.41 GB811
1 Year+ - in Movies1.41 GB00
1 Year+ - in Movies701.17 MB122
1 Year+ - in Movies725.23 MB520565

Comments (0 Comments)




Please login or create a FREE account to post comments

Latest Searches

| dolly dolly parton | office professional plus 2013 with | camp 1983 | Command And Conquer Generals Zero Hour Reborn V5 | prime loops acid | Batman Telltale Series Episode 3 | Microsoft Office 2011 Spanish mac | Under The Fr | set 157 | The Bourne Supremacy Dvdrip Avi |