Quick Browse
Movies
TV shows
Music
Games
Applications
Anime
Other
Facebook
Advertising

Friends
Torrent Download
Movie4u
1337x.to
Torrent Downloads




Verified torrent Prince Of Persia The Sands Of Time TS XViD - IMAGiNE - {XtremeTorrents}


    Seeders : 335      Leechers : 75

Trackers List

Tracker NameLast CheckStatusSeedersLeechers




Torrent File Content (6 files)


Prince of Persia The Sands of Time TS XViD - IMAGiNE [NO-RAR] - [ www.torrentday.com ]
     Prince of Persia The Sands of Time TS XViD - IMAGiNE SAMPLE.avi -
19.49 MB

     Prince of Persia The Sands of Time TS XViD - IMAGiNE.avi -
1.38 GB

     Prince of Persia The Sands of Time TS XViD - IMAGiNE.part001.sfv -
17.23 KB

     Prince of Persia The Sands of Time TS XViD IMAGiNE.NFO -
4.81 KB

     Read This Guide Now.txt -
502 bytes

     www.Torrentday.com.txt -
502 bytes



Description



Prince of Persia: The Sands of Time TS XViD IMAGiNE
************************************************************************************************************************
6.8/10
Video Codec.......:XVID Release Date......:28/05/10
Audio Codec.......:MP3 Theatre Date......:28/05/10
Audio Bitrate.....:128 Runtime...........:1h 44mn
Subtitles.........:NIL Language..........:ENGLISH
Resolution........:640 x 272 IMDb URL..........:http://www.imdb.com/title/tt0473075/

Video
Format : MPEG-4 Visual
Format profile : Streaming [email protected]
Format settings, BVOP : Yes
Format settings, QPel : No
Format settings, GMC : No warppoints
Format settings, Matrix : Default
Muxing mode : Packed bitstream
Codec ID : XVID
Codec ID/Hint : XviD
Duration : 1h 43mn
Bit rate : 1 759 Kbps
Width : 640 pixels
Height : 272 pixels
Display aspect ratio : 2.35
Frame rate : 25.000 fps
Resolution : 24 bits
Colorimetry : 4:2:0
Scan type : Progressive
Bits/(Pixel*Frame) : 0.404
Stream size : 1.28 GiB (93%)
Writing library : XviD 50

Audio
Format : MPEG Audio
Format version : Version 1
Format profile : Layer 3
Codec ID : 55
Codec ID/Hint : MP3
Duration : 1h 43mn
Bit rate mode : Constant
Bit rate : 128 Kbps
Channel(s) : 2 channels
Sampling rate : 44.1 KHz
Resolution : 16 bits
Video delay : 9ms
Stream size : 94.9 MiB (7%)
Alignment : Split accross interleaves
Interleave, duration : 40 ms (1.00 video frame)
Interleave, preload duration : 498 ms

IMDB rating: 6.9 (24,404 votes)
Release date: 09 May 2010
Cast: Alfred Molina, Ben Kingsley, Girija, Dimitri Andreas, Richard Coyle, Simon De Selva, Thomas DuPont, Vladimir 'Furdo' Furdik, Christopher Greet, Jake Gyllenhaal and others
Genre: Action, Adventure, Romance, Fantasy

Related torrents

Torrent NameAddedSizeSeedLeechHealth
1 Year+ - in Movies1.4 GB1,795373
1 Year+ - in Movies1.4 GB136
1 Year+ - in Movies1.4 GB628
1 Year+ - in Movies1.4 GB188
1 Year+ - in Movies1.4 GB41

Comments (1 comment)




Simovee
» Voted Good Voted Good for this torrent for this torrent

Added 1 Year+
Not bad for a can. Thanks extreme
Please login or create a FREE account to post comments

Latest Searches

| SexArt Stella Cox Friends Part 2 | Planet Earth II 2016 BluRay 1080p x264 | A State Of Trance 793 | Till I Die Die | her by monty | Tushy flash brown | metallica unforgiven hq | Kubo And The Two Strings 2016 1080p BluRay x264 DTS JYK mkv | billy name | CineSample |