Quick Browse
Movies
TV shows
Music
Games
Applications
Anime
Other
Facebook
Advertising

Friends
Torrent Download
Movie4u
1337x.to
Torrent Downloads




Verified torrent Project X 2012 CAM READNFO x264 AAC-26k


    Seeders : 1      Leechers : 0
Hash :47B72FA7EEADD44F0ED872234982B34D7632D062
Added :1 Year+ by memory100Verified torrent uploader in Movies
Size :1.51 GB
Stream :WATCH ONLINE @ Movie4u


Project X 2012 CAM READNFO x264 AAC-26k
Free and Fast Download with Usenet 300GB+ free







Trackers List

Tracker NameLast CheckStatusSeedersLeechers




Torrent File Content (8 files)


Project X 2012 CAM READNFO x264 AAC-26k
     HDSceneRG.txt -
115 bytes

     Project X 2012 CAM READNFO x264 AAC-26k.mp4 -
1.51 GB

     Project X 2012 CAM READNFO x264 AAC-26k.nfo -
3.54 KB

     Torrent downloaded from Demonoid.me.txt -
46 bytes

     Torrent downloaded from rarbg.com.txt.txt -
0 bytes

     YouTube Latest Releases And Archive.txt -
76 bytes

     att-networks.com.txt -
39 bytes

     sceneunderground.org.txt -
77 bytes



Description



http://img685.imageshack.us/img685/6286/projectxe.jpg

[code]
Project X 2012 CAM READNFO x264 AAC-26k

Imdb:
http://www.imdb.com/title/tt1636826/

Plot:
3 high school seniors throw a birthday party to make a name for themselves. As the night progresses, things spiral out of control as word of the party spreads.

Sources:
THNXS TO WHOEVER.... BOUGHT THIS OUT :D

Notes:
VERY SHAKEY,DARK AND A LOW RESOLUTION...VERY BAD CAM TO BE FAIR ALSO HAS THE OCCASIONAL WATERMARK ON THE VIDEO WHICH LASTS FOR SOME TIME...THEN GOES AWAY HAD 9 MINS OF MISSING VIDEO AT THE END ... SO WITH ALL ...CROPPED AND RESIZED AND FILTERED....
SO TAKE IT OR WAIT FOR NEW SOURCE SHOULD BE SOON ;P...


Greetz:
Xtreme Encode|FYA|ILLUMANTI|CM8|RX|VISION|HDSCENE|NIGHTMAREZ|xTriLL|DTRG|CRYS|REMIXHD|BIDA|RX|REFILL|INSPiRAL|SIC|ZOMBIESZ|HOPE|Anonymous|GooN|P76
To all the people who have helped me :P you know who you are

Anything to offer email us @: [email protected]

Video
ID : 1
Format : AVC
Format/Info : Advanced Video Codec
Format profile : [email protected]
Format settings, CABAC : Yes
Format settings, ReFrames : 6 frames
Codec ID : avc1
Codec ID/Info : Advanced Video Coding
Duration : 1h 17mn
Bit rate : 2 499 Kbps
Maximum bit rate : 5 460 Kbps
Width : 720 pixels
Height : 400 pixels
Display aspect ratio : 16:9
Frame rate mode : Constant
Frame rate : 15.000 fps
Color space : YUV
Chroma subsampling : 4:2:0
Bit depth : 8 bits
Scan type : Progressive
Bits/(Pixel*Frame) : 0.578
Stream size : 1.36 GiB (90%)
Writing library : x264 core 120 r2164 da19765

Audio
ID : 2
Format : AAC
Format/Info : Advanced Audio Codec
Format profile : LC
Codec ID : 40
Duration : 1h 17mn
Bit rate mode : Variable
Bit rate : 288 Kbps
Maximum bit rate : 316 Kbps
Channel(s) : 2 channels
Channel positions : Front: L R
Sampling rate : 44.1 KHz
Compression mode : Lossy
Stream size : 157 MiB (10%)
Language : English
Encoded date : UTC 2012-03-14 21:12:58
Tagged date : UTC 2012-03-14 21:13:06

[/code]
Screens:
http://i.imgur.com/ZMWcA.png

http://img534.imageshack.us/img534/3222/vlcsnap2012031421h20m19.png

http://img545.imageshack.us/img545/6859/vlcsnap2012031421h20m12.png

http://img19.imageshack.us/img19/2409/vlcsnap2012031421h19m41.png

http://img3.imageshack.us/img3/5997/vlcsnap2012031421h19m28.png


http://img851.imageshack.us/img851/5503/26ks.jpg

Thank you smallz for banner!

Related torrents

Torrent NameAddedSizeSeedLeechHealth
7 months ago - in Movies1.56 GB00
1 Year+ - in Movies896.86 MB11
1 Year+ - in Movies895.86 MB10
Verified torrent
1 Year+ - in Movies1.56 GB545164
Verified torrent
1 Year+ - in Movies1.23 GB11128

Comments (0 Comments)




Please login or create a FREE account to post comments

Latest Searches

| sensual sensations | muse the handler | bridgette gina | vikings remix | xxxshades kendra | 11 commercial | Sherlock 2 hindi | alyssa lynn 07 | c j box joe picket | Illenium Fortress feat Joni Fatora |