Quick Browse
Movies
TV shows
Music
Games
Applications
Anime
Other
Facebook
Advertising

Friends
Torrent Download
Movie4u
1337x.to
Torrent Downloads




Verified torrent Project X 2012 CAM XviD - NO WATERMARK - INFERNO


    Seeders : 3      Leechers : 0
Hash :DD2555D7D99DEA243D0639213A1EA8E07E22DD12
Added :1 Year+ by robyrsVerified torrent uploader in Movies
Size :1.08 GB
Stream :WATCH ONLINE @ Movie4u


Project X 2012 CAM XviD - NO WATERMARK - INFERNO
Free and Fast Download with Usenet 300GB+ free







Trackers List

Tracker NameLast CheckStatusSeedersLeechers




Torrent File Content (5 files)


Project X 2012 CAM XviD - NO WATERMARK - INFERNO
     ENGLISH.sub -
4.33 MB

     Project X 2012 CAM XviD - NO WATERMARK - INFERNO.avi -
1.08 GB

     Torrent downloaded from Demonoid.me.txt -
46 bytes

     Torrent downloaded from h33t.com.txt -
32 bytes

     Torrent downloaded from Rarbg.com.txt -
33 bytes



Description



http://img141.imageshack.us/img141/9629/vlcsnapprojximage.jpg


Project X 2012 CAM XviD - NO WATERMARK - INFERNO

3 high school seniors throw a birthday party to make a name for themselves. As the night progresses, things spiral out of control as word of the party spreads.

http://www.imdb.com/title/tt1636826/

http://img854.imageshack.us/img854/8581/vlcsnapprojectx0001c.jpg


http://img444.imageshack.us/img444/4742/vlcsnapprojectx0003c.jpg


http://img204.imageshack.us/img204/9961/vlcsnapprojectx0004c.jpg


http://img197.imageshack.us/img197/1198/vlcsnapprojectx0002c.jpg


Source: CrEwSaDe....THX

Format : AVI
Format/Info : Audio Video Interleave
File size : 1.08 GiB
Duration : 1h 56mn
Overall bit rate : 1 694 Kbps
Writing application : Lavf51.12.1
Writing library : VirtualDub build 33848/release

Video
ID : 0
Format : MPEG-4 Visual
Format profile : Advanced [email protected]
Format settings, BVOP : Yes
Format settings, QPel : No
Format settings, GMC : No warppoints
Format settings, Matrix : Default (H.263)
Muxing mode : Packed bitstream
Codec ID : XVID
Codec ID/Hint : XviD
Duration : 1h 56mn
Bit rate : 1 492 Kbps
Width : 720 pixels
Height : 304 pixels
Display aspect ratio : 2.35:1
Frame rate : 25.000 fps
Color space : YUV
Chroma subsampling : 4:2:0
Bit depth : 8 bits
Scan type : Progressive
Bits/(Pixel*Frame) : 0.273
Stream size : 1.22 GiB (88%)
Writing library : XviD 1.2.1 (UTC 2008-12-04)

Audio
ID : 1
Format : MPEG Audio
Format version : Version 1
Format profile : Layer 3
Mode : Joint stereo
Mode extension : MS Stereo
Codec ID : 55
Codec ID/Hint : MP3
Duration : 1h 56mn
Bit rate mode : Constant
Bit rate : 192 Kbps
Channel(s) : 2 channels
Stream size : 161 MiB (11%)
Alignment : Split accross interleaves
Interleave, duration : 40 ms (1.00 video frame)
Interleave, preload duration : 500 ms
Writing library : LAME3.98.2

Workdone:
Well getting pm's like crazy...some believe it and some dont, but yes we removed the watermark, but only 90% of it. Then we had a choice to blur it or not for the finishing touch. If we didnt litely blur the area you would be able to see the outline of the watermark, so we litely blur it. Last 2 screenshots will show examples. After that was all done, it was a pain to get this file saved in this new program and we had to read up on it. After that was done we insert it into vdub and did our usual, levels, brightness,contrast,and litely ran a smoother.

Audio: untouched

ENJOY THIS FINE RELEASE BY:
INFERNO

Related torrents

Torrent NameAddedSizeSeedLeechHealth
Verified torrent
1 Year+ - in Movies1.09 GB197
1 Comments
1 Bad
Verified torrent
1 Year+ - in Movies1.05 GB10
1 Year+ - in Other709.57 MB10
1 Year+ - in Movies701.43 MB10
1 Year+ - in Movies701.45 MB10

Comments (0 Comments)




Please login or create a FREE account to post comments

Latest Searches

| Secret Book of John | S01E16 The Lying Game | the hellfreaks astoria | drop top slim thug | Trailer Park Boys Say Goodnight to the Bad Guys 2008 | jana kramer 2015 | is it wrong to try to pick up girls in a dungeon english | tasha reign field | on the floor like bassjackers joe ghost feat moti | Podrywacze Amateur Polish Porn Pack 12 videos |