Quick Browse
Movies
TV shows
Music
Games
Applications
Anime
Other
Facebook
Advertising

Friends
Torrent Download
Movie4u
1337x.to
Torrent Downloads




Verified torrent Project X 2012 DVDSCR XviD Cinemagic


    Seeders : 1      Leechers : 0
Hash :5C4A42AE9FE76A7BF19924B982E11E61E6D3B6F3
Added :1 Year+ by robyrsVerified torrent uploader in Movies
Size :1.05 GB
Stream :WATCH ONLINE @ Movie4u


Project X 2012 DVDSCR XviD Cinemagic
Free and Fast Download with Usenet 300GB+ free







Trackers List

Tracker NameLast CheckStatusSeedersLeechers




Torrent File Content (9 files)


Project X 2012 DVDSCR XviD Cinemagic
     nfo.nfo -
431 bytes

     Project X 2012 DVDSCR XviD Cinemagic.avi -
1.04 GB

     Torrent downloaded from AhaShare.com.txt -
59 bytes

     Torrent downloaded from Demonoid.me.txt -
46 bytes

     Torrent downloaded from Extratorrent.com.txt -
40 bytes

     Torrent downloaded from h33t.com.txt -
32 bytes

     Torrent downloaded from Rarbg.com.txt -
33 bytes

     Torrent downloaded from Suprnova.me.txt -
42 bytes

     vlcsnap ProJX image.jpg -
86.26 KB



Description



http://img141.imageshack.us/img141/9629/vlcsnapprojximage.jpg


Project X 2012 DVDSCR XviD Cinemagic

3 high school seniors throw a birthday party to make a name for themselves. As the night progresses, things spiral out of control as word of the party spreads.

http://www.imdb.com/title/tt1636826/

http://img854.imageshack.us/img854/8581/vlcsnapprojectx0001c.jpg


http://img444.imageshack.us/img444/4742/vlcsnapprojectx0003c.jpg


http://img204.imageshack.us/img204/9961/vlcsnapprojectx0004c.jpg


http://img197.imageshack.us/img197/1198/vlcsnapprojectx0002c.jpg


Source: DMDX...THX

Format : AVI
Format/Info : Audio Video Interleave
File size : 1.05 GiB
Duration : 1h 56mn
Overall bit rate : 1 694 Kbps
Writing application : Lavf51.12.1
Writing library : VirtualDub build 33848/release

Video
ID : 0
Format : MPEG-4 Visual
Format profile : Advanced [email protected]
Format settings, BVOP : Yes
Format settings, QPel : No
Format settings, GMC : No warppoints
Format settings, Matrix : Default (H.263)
Muxing mode : Packed bitstream
Codec ID : XVID
Codec ID/Hint : XviD
Duration : 1h 56mn
Bit rate : 1 492 Kbps
Width : 720 pixels
Height : 304 pixels
Display aspect ratio : 2.35:1
Frame rate : 25.000 fps
Color space : YUV
Chroma subsampling : 4:2:0
Bit depth : 8 bits
Scan type : Progressive
Bits/(Pixel*Frame) : 0.273
Stream size : 1.22 GiB (88%)
Writing library : XviD 1.2.1 (UTC 2008-12-04)

Audio
ID : 1
Format : MPEG Audio
Format version : Version 1
Format profile : Layer 3
Mode : Joint stereo
Mode extension : MS Stereo
Codec ID : 55
Codec ID/Hint : MP3
Duration : 1h 56mn
Bit rate mode : Constant
Bit rate : 192 Kbps
Channel(s) : 2 channels
Stream size : 161 MiB (11%)
Alignment : Split accross interleaves
Interleave, duration : 40 ms (1.00 video frame)
Interleave, preload duration : 500 ms
Writing library : LAME3.98.2

Workdone:
Well getting pm's like crazy...some believe it and some dont, but yes we removed the watermark, but only 90% of it. Then we had a choice to blur it or not for the finishing touch. If we didnt litely blur the area you would be able to see the outline of the watermark, so we litely blur it. Last 2 screenshots will show examples. After that was all done, it was a pain to get this file saved in this new program and we had to read up on it. After that was done we insert it into vdub and did our usual, levels, brightness,contrast,and litely ran a smoother.

Audio: untouched

ENJOY THIS FINE RELEASE BY:
Cinemagic

Related torrents

Torrent NameAddedSizeSeedLeechHealth
3 Comments
1 Bad
Verified torrent
1 Year+ - in Movies1.09 GB51
1 Year+ - in Movies709 MB00
1 Year+ - in Movies709 MB00
1 Year+ - in Movies696 MB00
1 Year+ - in Movies708 MB00

Comments (0 Comments)




Please login or create a FREE account to post comments

Latest Searches

| waka flocka wale roscoe dash | atb the fields of love | The Jimi Hendrix Experience Radio One | rich Edwards feat jonny rose | 2 head remix | Alone in the Dark 2005 UNRATED Directors Cut 720p | right trina | hays y | Saahasam Swasaga Saagipo Telugu Movies 2016 DesiSCR | on the road again canned heat |