Quick Browse
Movies
TV shows
Music
Games
Applications
Anime
Other
Facebook
Advertising

Friends
Torrent Download
Movie4u
1337x.to
Torrent Downloads




Verified torrent Project X 2012 Eng DVDSCR xvid INFERNO


    Seeders : 1      Leechers : 0
Hash :4E19B77256047DEBD7C12C59A0BA6D2DFA76DEFF
Added :1 Year+ by robyrsVerified torrent uploader in Movies
Size :992.26 MB
Stream :WATCH ONLINE @ Movie4u


Project X 2012 Eng DVDSCR xvid INFERNO
Free and Fast Download with Usenet 300GB+ free







Trackers List

Tracker NameLast CheckStatusSeedersLeechers




Torrent File Content (7 files)


Project X 2012 Eng DVDSCR xvid INFERNO
     Project X 2012 Eng DVDSCR xvid INFERNO.avi -
992.26 MB

     darkcore.me.txt -
834 bytes

     HD File info.txt -
727 bytes

     sceneunderground.org.txt -
77 bytes

     Torrent downloaded from AhaShare.com.txt -
59 bytes

     Torrent downloaded from Suprnova.me.txt -
42 bytes

     Torrent downloaded from Rarbg.com.txt -
33 bytes



Description



http://img141.imageshack.us/img141/9629/vlcsnapprojximage.jpg


Project X 2012 Eng DVDSCR xvid INFERNO

3 high school seniors throw a birthday party to make a name for themselves. As the night progresses, things spiral out of control as word of the party spreads.

http://www.imdb.com/title/tt1636826/

Source: ETRG....THX

Format : AVI
Format/Info : Audio Video Interleave
Duration : 1h 56mn
Overall bit rate : 1 694 Kbps
Writing application : Lavf51.12.1
Writing library : VirtualDub build 33848/release

Video
ID : 0
Format : MPEG-4 Visual
Format profile : Advanced [email protected]
Format settings, BVOP : Yes
Format settings, QPel : No
Format settings, GMC : No warppoints
Format settings, Matrix : Default (H.263)
Muxing mode : Packed bitstream
Codec ID : XVID
Codec ID/Hint : XviD
Duration : 1h 56mn
Bit rate : 1 492 Kbps
Width : 720 pixels
Height : 304 pixels
Display aspect ratio : 2.35:1
Frame rate : 25.000 fps
Color space : YUV
Chroma subsampling : 4:2:0
Bit depth : 8 bits
Scan type : Progressive
Bits/(Pixel*Frame) : 0.273
Stream size : 1.22 GiB (88%)
Writing library : XviD 1.2.1 (UTC 2008-12-04)

Audio
ID : 1
Format : MPEG Audio
Format version : Version 1
Format profile : Layer 3
Mode : Joint stereo
Mode extension : MS Stereo
Codec ID : 55
Codec ID/Hint : MP3
Duration : 1h 56mn
Bit rate mode : Constant
Bit rate : 192 Kbps
Channel(s) : 2 channels
Stream size : 161 MiB (11%)
Alignment : Split accross interleaves
Interleave, duration : 40 ms (1.00 video frame)
Interleave, preload duration : 500 ms
Writing library : LAME3.98.2

Audio: untouched

Workdone:
Well getting pm's like crazy...some believe it and some dont, but yes we removed the watermark, but only 90% of it. Then we had a choice to blur it or not for the finishing touch. If we didnt litely blur the area you would be able to see the outline of the watermark, so we litely blur it. Last 2 screenshots will show examples. After that was all done, it was a pain to get this file saved in this new program and we had to read up on it. After that was done we insert it into vdub and did our usual, levels, brightness,contrast,and litely ran a smoother.

ENJOY THIS FINE RELEASE BY:

SCREENS:

http://img854.imageshack.us/img854/8581/vlcsnapprojectx0001c.jpg

http://img444.imageshack.us/img444/4742/vlcsnapprojectx0003c.jpg

http://img204.imageshack.us/img204/9961/vlcsnapprojectx0004c.jpg

http://img197.imageshack.us/img197/1198/vlcsnapprojectx0002c.jpg

Related torrents

Torrent NameAddedSizeSeedLeechHealth
1 Year+ - in Movies757.12 MB1,3621,181
1 Year+ - in Movies755.53 MB1,0701,153
Verified torrent
1 Year+ - in Movies755.11 MB21
2 Comments
1 Good
Verified torrent
1 Year+ - in Movies733.71 MB13
Verified torrent
1 Year+ - in Movies725.93 MB13

Comments (0 Comments)




Please login or create a FREE account to post comments

Latest Searches

| luna star sextape | O t crisis | greatest show on earth richard | dec 5 2016 | cumshot complete | that 70s show season s05 | Naruto Shippuuden Season 6 720p Taka | Drive 2011 English DVD BHRG | shaun the sheep s04e13 hdtv x264 deadpool p2pdl | flying burrito brothers avalon |