Quick Browse
Movies
TV shows
Music
Games
Applications
Anime
Other
Facebook
Advertising

Friends
Torrent Download
Movie4u
1337x.to
Torrent Downloads




Verified torrent Puppet Master Axis Of Evil [DVD5] [ENG] [AC3] [Hannspree]


    Seeders : 5      Leechers : 5
Hash :DEE1249BEF1BC3634F31DCFED18068C47E1FA4BC
Added :1 Year+ by HannspreeVerified torrent uploader in Movies
Size :869.42 MB
Stream :WATCH ONLINE @ Movie4u


Puppet Master Axis Of Evil [DVD5] [ENG] [AC3] [Hannspree]
Free and Fast Download with Usenet 300GB+ free







Trackers List

Tracker NameLast CheckStatusSeedersLeechers




Torrent File Content (11 files)


Puppet Master Axis Of Evil
    Puppet Master Axis Of Evil [DVD]
          VIDEO_TS/VIDEO_TS.BUP -
12 KB

          VIDEO_TS/VIDEO_TS.IFO -
12 KB

          VIDEO_TS/VIDEO_TS.VOB -
58 KB

          VIDEO_TS/VTS_01_0.BUP -
60 KB

          VIDEO_TS/VTS_01_0.IFO -
60 KB

          VIDEO_TS/VTS_01_0.VOB -
58 KB

          VIDEO_TS/VTS_01_1.VOB -
868.99 MB

    Puppet Master Axis Of Evil [Images]
          Puppet Master Axis Of Evil [Cover].jpg -
60.63 KB

          Puppet Master Axis Of Evil [Disc].jpg -
16.39 KB

          Puppet Master Axis Of Evil [Screens].jpg -
100.82 KB

     Puppet Master Axis Of Evil.NFO -
3.96 KB



Description



=====================================================================================
[ Another free, high quality, ready to burn DVD I will be adding new torrents on a daily basis - Remember to seed ]
=====================================================================================
MOVIE TITLE: Puppet Master Axis Of Evil
LANGUAGE: English
MOVIE SUBS: No
BURN TESTED: Yes
FORMAT: Pal
GENRE: Horror | Sci-Fi | Thriller
RUNTIME: 83 Minutes
YEAR: 2010
IMDB LINK: http://www.imdb.com/title/tt1504467/
=====================================================================================
MOVIE DESC:

In a Stateside hotel during the height of World War II, young Danny Coogan dreams of joining the war effort. Following the murder of hotel guest Mr. Toulon by Nazi assassins, Danny finds the old man's crate of mysterious puppets and is suddenly thrust into a battle all his own. He discovers that Nazis Max and Klaus, along with beautiful Japanese saboteur Ozu, plan to attack a secret American manufacturing plant. After his family is attacked and his girlfriend Beth is kidnapped, it is up to Danny and the living deadly Puppets to stop this Axis of Evil.
=====================================================================================
MOVIE SPECS:

GENERAL:
Complete name : Puppet Master Axis Of Evil [DVD5]
Format : MPEG-PS
File size : 869 MiB
Duration : 83 Minutes
Overall bit rate : 1 497 Kbps

VIDEO:
ID : 224 (0xE0)
Format : MPEG Video
Format version : Version 2
Format profile : [email protected]
Format settings, BVOP : Yes
Format settings, Matrix : Default
Duration : 83 Minutes
Bit rate mode : Variable
Bit rate : 1 276 Kbps
Nominal bit rate : 9 608 Kbps
Width : 720 pixels
Height : 576 pixels
Display aspect ratio : 16:9
Frame rate : 25.000 fps
Standard : PAL
Color space : YUV
Chroma subsampling : 4:2:0
Bit depth : 8 bits
Scan type : Progressive
Bits/(Pixel*Frame) : 0.123
Stream size : 740 MiB (85%)

AUDIO:
ID : 128 (0x80)
Format : AC-3
Format/Info : Audio Coding 3
Mode extension : CM (complete main)
Duration : 83 Minutes
Bit rate mode : Constant
Bit rate : 192 Kbps
Channel(s) : 2 channels
Channel positions : Front: L R
Sampling rate : 48.0 KHz
Stream size : 111 MiB (13%)
=====================================================================================
TRACKERS:
http://torrentbucket.org/announce
http://denis.stalker.h3q.com:6969/announce
http://nemesis.1337x.org/announce
http://exodus.1337x.org/announce
http://tracker.publicbt.com/announce
http://10.rarbg.com/announce
http://tracker.ilibr.org:6969/announce
http://rt.beeretracker.net/announce.php
http://red.tracker.prq.to/announce
http://tpb.tracker.prq.to/announce
=====================================================================================
[FOOT NOTE]
If you are happy with this download, it would be nice to hear your views or comments that you might have. Enjoy
=====================================================================================
Screen Shots Of Puppet Master Axis Of Evil
=====================================================================================
http://leetpic.com/images/puppetmast.jpg

=====================================================================================

Related torrents

Torrent NameAddedSizeSeedLeechHealth
1 Year+ - in Movies967.44 MB134
1 Year+ - in Movies744.51 MB00
1 Year+ - in Movies633.66 MB00
1 Year+ - in Movies633.66 MB01
1 Year+ - in Movies701.02 MB4111

Comments (0 Comments)




Please login or create a FREE account to post comments

Latest Searches

| legal black busters july | Planeta singli 1080p | nero express with serial | The Roots Of AC DC The 60 s 70 s Collection 2014 | aubrey star Flesh Hunter 13 | Bruce Lee The Big Boss 1971 1080p | the bitch of the wall street | movie angrez | adria melissa | Close To The Enemy S01E05 HDTV x264 RiVERettv |