Quick Browse
Movies
TV shows
Music
Games
Applications
Anime
Other
Facebook
Advertising

Friends
Torrent Download
Movie4u
1337x.to
Torrent Downloads




Verified torrent Puss in Boots 2011 DVDSc READNFO XviD-26K


    Seeders : 1      Leechers : 0
Hash :B7F957BE05CED44B1884224E7C2336FA9CE288CB
Added :1 Year+ by memory100Verified torrent uploader in Movies
Size :1.1 GB
Stream :WATCH ONLINE @ Movie4u


Puss in Boots 2011 DVDSc READNFO XviD-26K
Free and Fast Download with Usenet 300GB+ free







Trackers List

Tracker NameLast CheckStatusSeedersLeechers




Torrent File Content (7 files)


Puss in Boots 2011 DVDSCR XviD AC3-26K
     att-networks.com.txt -
39 bytes

     HDSceneRG.txt -
115 bytes

     Puss in Boots 2011 DVDSCR XviD AC3-26K.avi -
1.07 GB

     Puss in Boots 2011 DVDSCR XviD AC3-26K.nfo -
3.35 KB

     sample.avi -
23.79 MB

     sceneunderground.org.txt -
77 bytes

     Torrent downloaded from Demonoid.me.txt -
46 bytes



Description



http://img198.imageshack.us/img198/5035/pussboots.jpg

[code]
Puss in Boots 2011 DVDSCR XviD AC3-26K

Imdb:
http://www.imdb.com/title/tt0448694/

Plot:
A story about the events leading up to the sword fighting cat's meeting with Shrek and his friends.

Sources:
Audio: MiSTERE /BIDA(SYNC) THNXS
Video: El.Gato.con.Botas.DvdScr.Cast.by.zafiro219 thhnxs man

Notes:
Not bad for a dvdscr but is at 4.3 :/... added few filters to video to make it look nice :)
enjoy ...

Greetz:
Xtreme Encode|FYA|ILLUMANTI|CM8|RX|VISION|HDSCENE|NIGHTMAREZ|xTriLL|DTRG|CRYS|REMIXHD|BIDA|RX|REFILL| INSPiRAL|SIC
To all the people who have helped me :P you know who you are

Anything to offer email us @: [email protected]

Video
ID : 0
Format : MPEG-4 Visual
Format profile : Advanced [email protected]
Format settings, BVOP : 2
Format settings, QPel : No
Format settings, GMC : No warppoints
Format settings, Matrix : Default (H.263)
Codec ID : XVID
Codec ID/Hint : XviD
Duration : 1h 30mn
Bit rate : 1 500 Kbps
Width : 720 pixels
Height : 540 pixels
Display aspect ratio : 4:3
Frame rate : 29.970 fps
Color space : YUV
Chroma subsampling : 4:2:0
Bit depth : 8 bits
Scan type : Progressive
Compression mode : Lossy
Bits/(Pixel*Frame) : 0.129
Stream size : 969 MiB (88%)
Writing library : XviD 63

Audio
ID : 1
Format : AC-3
Format/Info : Audio Coding 3
Mode extension : CM (complete main)
Codec ID : 2000
Duration : 1h 30mn
Bit rate mode : Constant
Bit rate : 192 Kbps
Channel(s) : 2 channels
Channel positions : Front: L R
Sampling rate : 44.1 KHz
Bit depth : 16 bits
Compression mode : Lossy
Stream size : 124 MiB (11%)
Alignment : Aligned on interleaves
Interleave, duration : 35 ms (1.04 video frame)

[/code]
Screens:
http://img707.imageshack.us/img707/694/vlcsnap2012011016h44m01.png

http://img684.imageshack.us/img684/7325/vlcsnap2012011016h44m05.png

http://img809.imageshack.us/img809/6907/vlcsnap2012011016h44m09.png

http://img840.imageshack.us/img840/758/vlcsnap2012011016h44m14.png

http://img706.imageshack.us/img706/7054/vlcsnap2012011016h44m18.png

http://img848.imageshack.us/img848/1894/vlcsnap2012011016h44m30.png


http://img851.imageshack.us/img851/5503/26ks.jpg
#
Thank you smallz for banner!

Related torrents

Torrent NameAddedSizeSeedLeechHealth
1 Year+ - in Movies1.1 GB258
1 Year+ - in Movies699.73 MB116
Verified torrent
1 Year+ - in Movies695.48 MB05
Verified torrent
1 Year+ - in Movies699.73 MB17
1 Year+ - in Movies699.72 MB1086

Comments (0 Comments)




Please login or create a FREE account to post comments

Latest Searches

| best dj s | 4 string s | Janatha Garage 2016 DVDRip | lexxxi luxe my wifes bbw sister | the legend of korra s04e10 xred | keeani lei na | Yarina Play For Me | the sopranos season 4 dvdrip | Spectral 2016 720p | Happy new year 201 |