Quick Browse
Movies
TV shows
Music
Games
Applications
Anime
Other
Facebook
Advertising

Friends
Torrent Download
Movie4u
1337x.to
Torrent Downloads




Verified torrent Puss in Boots 2011 TS XviD - MiSTERE


    Seeders : 1      Leechers : 0
Hash :95A9AA3CB12452C8E97712659BD67435C1C5A262
Added :1 Year+ by memory100Verified torrent uploader in Movies
Size :1.62 GB
Stream :WATCH ONLINE @ Movie4u


Puss in Boots 2011 TS XviD - MiSTERE
Free and Fast Download with Usenet 300GB+ free







Trackers List

Tracker NameLast CheckStatusSeedersLeechers




Torrent File Content (8 files)


Puss in Boots 2011 TS XviD - MiSTERE
     HDSceneRG.txt -
115 bytes

     Puss in Boots 2011 TS XviD - MiSTERE.avi -
1.61 GB

     Puss in Boots 2011 TS XviD - MiSTERE.nfo -
2.29 KB

     Torrent downloaded from Demonoid.me.txt -
46 bytes

     Torrent downloaded from Suprnova.me.txt -
42 bytes

     att-networks.com.txt -
39 bytes

     sample.avi -
14.41 MB

     sceneunderground.org.txt -
77 bytes



Description



http://img593.imageshack.us/img593/6626/puss.jpg

[code]
Puss in Boots 2011 TS XviD - MiSTERE

http://www.imdb.com/title/tt0448694/

Video
ID : 0
Format : MPEG-4 Visual
Format profile : Advanced [email protected]
Format settings, BVOP : 2
Format settings, QPel : No
Format settings, GMC : No warppoints
Format settings, Matrix : Default (H.263)
Muxing mode : Packed bitstream
Codec ID : XVID
Codec ID/Hint : XviD
Duration : 1h 20mn
Bit rate : 2 706 Kbps
Width : 720 pixels
Height : 304 pixels
Display aspect ratio : 2.35:1
Frame rate : 25.000 fps
Color space : YUV
Chroma subsampling : 4:2:0
Bit depth : 8 bits
Scan type : Progressive
Compression mode : Lossy
Bits/(Pixel*Frame) : 0.494
Stream size : 1.53 GiB (95%)
Writing library : XviD 64

Audio
ID : 1
Format : MPEG Audio
Format version : Version 1
Format profile : Layer 3
Mode : Joint stereo
Mode extension : MS Stereo
Codec ID : 55
Codec ID/Hint : MP3
Duration : 1h 20mn
Bit rate mode : Constant
Bit rate : 128 Kbps
Channel(s) : 2 channels
Sampling rate : 44.1 KHz
Compression mode : Lossy
Stream size : 74.0 MiB (5%)
Alignment : Split accross interleaves
Interleave, duration : 40 ms (1.00 video frame)

Plot:
A story about the events leading up to the sword fighting cat's meeting with Shrek and his friends.


Thanks to RELiZLABS for the source files
Sharpened Resized and tweaked RGB
[/code]
Screens:
http://img217.imageshack.us/img217/4069/45620398.png

http://img641.imageshack.us/img641/5208/42662994.png

Related torrents

Torrent NameAddedSizeSeedLeechHealth
1 Year+ - in Movies1.62 GB104113
1 Year+ - in Movies1.62 GB228
1 Year+ - in Movies1.62 GB00
1 Year+ - in Movies1.62 GB3138
1 Year+ - in Movies1.61 GB05

Comments (0 Comments)




Please login or create a FREE account to post comments

Latest Searches

| lil wayne love in | The Simpsons S28E09 HDTV x264 FUM | Planet Earth 2 h264 | spoofporn xxx | shark tank s05e28 sdtv 2maverick mp4 | Banjo 2016 Hindi WebRip X264 MSubs 1CD Team Jaffa | chuck season 2 x264 | papadopoulou pitsa | lean on dj lazer mp3 | 08 12 rq |