Quick Browse
Movies
TV shows
Music
Games
Applications
Anime
Other
Facebook
Advertising

Friends
Torrent Download
Movie4u
1337x.to
Torrent Downloads




Pyar.Impossible.2010. HINDI [email protected]


    Seeders : 63      Leechers : 227

Trackers List

Tracker NameLast CheckStatusSeedersLeechers




Torrent File Content (1 file)


     Pyar.Impossible.2010.1Cd.CamRip.avi -
691.72 MB



Description



http://mimg.sulekha.com/hindi/pyaar-impossible/Wallpaper/800-600/pyaar-impossible-poster01.jpg


VIDEO DETAILS:-
[code]
Format : AVI
Format/Info : Audio Video Interleave
File size : 692 MiB
Duration : 1h 56mn
Overal bit rate : 832 Kbps
Writing application : AVI-Mux GUI 1.17.7, Aug 8 2006 20:59:17

Video
Format : MPEG-4 Visual
Format profile : Streaming [email protected]
Format settings, BVOP : Yes
Format settings, QPel : No
Format settings, GMC : No warpoints
Format settings, Matrix : Default
Codec ID : XVID
Codec ID/Hint : XviD
Duration : 1h 56mn
Bit rate : 701 Kbps
Width : 608 pixels
Height : 288 pixels
Display aspect ratio : 2.2
Frame rate : 25.000 fps
Resolution : 8 bits
Colorimetry : 4:2:0
Scan type : Progressive
Bits/(Pixel*Frame) : 0.160
Stream size : 582 MiB
Writing library : XviD 50

Audio
Format : MPEG Audio
Format version : Version 1
Format profile : Layer 3
Codec ID : 55
Codec ID/Hint : MP3
Bit rate mode : Constant
Bit rate : 128 Kbps
Minimum bit rate : 128 Kbps
Channel(s) : 2 channels
Sampling rate : 48.0 KHz
Resolution : 16 bits
Stream size : 106 MiB
Title : VIDEO 5 Tc0 L2 2ch 48 128 DELAY 0ms
Writing library : LAME3.98r
Encoding settings : CBR[/code]

http://img7.uploadhouse.com/fileuploads/5031/5031316d360e7abe2506cd1b365701d165cf358.png

http://img5.uploadhouse.com/fileuploads/5031/50313175447619f44b95e6627a7a890e003877b.png

http://img4.uploadhouse.com/fileuploads/5031/50313180010803c88881c5d5c76d26ce17a8be6.png

http://img7.uploadhouse.com/fileuploads/5031/50313192592d3db8a6a45436132006446c80f8d.png

http://img9.uploadhouse.com/fileuploads/5031/50313205ff57532e0879a57926297a9b0c03da4.png

http://img7.uploadhouse.com/fileuploads/5031/50313217ae955f61e0b0ea5de03494f5b5942a7.png

http://img5.uploadhouse.com/fileuploads/5031/5031322213dc38310d15aff6ad89196e1a766b0.png

http://img4.uploadhouse.com/fileuploads/5031/5031323f395b06d76b0c6a41d5fcb4a81707064.png

http://img5.uploadhouse.com/fileuploads/5031/503132408ec75d78aceb2c0700d91127eac18b1.png

http://img4.uploadhouse.com/fileuploads/5031/503132504905468cbb3b4d7faf92ef9c1ec3725.png


SAMPLE:- http://www.filefactory.com/file/a18eefg/n/sample.avi

[size=5][color=blue]CREDITS TO MASTITORRENTS[/color][/size]

Related torrents

Torrent NameAddedSizeSeedLeechHealth
1 Year+ - in Movies691.72 MB77409
1 Year+ - in Movies694.86 MB937
1 Year+ - in Movies691.81 MB268304
1 Year+ - in Movies828.51 MB10
1 Year+ - in Movies692.92 MB256

Comments (0 Comments)




Please login or create a FREE account to post comments

Latest Searches

| MomsBangTeens Kristal Summers Avril Hall | The Heist album | A M Gunslinger Girl S1 S2 OVA S | Boat Bangers Siterip 720p alicia | downgrade exe | mine hd | w8 setup | hidden camera massage parlor | in a low light skye | kingdom 1080p 2014 |