Quick Browse
Movies
TV shows
Music
Games
Applications
Anime
Other

Latest Articles

Friends
Torrents.me
Torrent Download
Free Movies
1337x
RARBG
Torrent Downloads

Verified torrent R Kelly - When A Woman Loves


    Seeders : 128      Leechers : 4

Hash :77AF6113202B49DB13C26CEBA67C5BBAE8795F0A
Added :1 Year+ by KingPinVerified torrent uploader in Music - Music Videos
Size :106.9 MB
Stream :Watch Online Full Movie @ Movie4u
Share :


R Kelly - When A Woman Loves
Download Direct And Anonymously







Warning! Do not Download Torrents Without a VPN!
Your IP Address is .   And Location is
Your Internet Provider and Government can track your torrent Activity!  Hide your IP ADDRESS with a VPN!
We Strongly Recommend Using SpyOFF Torrent VPN to Anonymize your Torrenting. It's FREE for 15 Days!

Note :

Please Update (Trackers Info) Before Downloading Torrents to See Updated Seeders And Leechers for Batter Download Speed.

Trackers List

Tracker NameLast CheckStatusSeedersLeechers




Torrent File Content (5 files)


R Kelly - When A Woman Loves [KingPinVideos]
     R Kelly - When A Woman Loves [KingPinVideos].mpg -
106.9 MB

     R Kelly - When A Woman Loves [KingPinVideos].nfo -
2.05 KB

     R Kelly - When A Woman Loves [KingPinVideos].txt -
1.63 KB

     Torrent downloaded from Demonoid.com.txt -
47 bytes

     Torrent Downloaded from Limetorrents.com.txt -
46 bytes



Description



http://a.imageshack.us/img834/108/rkellywoman2.png


http://a.imageshack.us/img525/4146/rkellywoman.png


[code]General
Complete name : R Kelly - When A Woman Loves [KingPinVideos].mpg
Format : MPEG-PS
File size : 107 MiB
Duration : 5mn 13s
Overall bit rate : 2 856 Kbps
Writing library : encoded by TMPGEnc 4.0 XPress Version. 4.7.4.299

Video
ID : 224 (0xE0)
Format : MPEG Video
Format version : Version 1
Format settings, BVOP : Yes
Format settings, Matrix : Default
Duration : 5mn 13s
Bit rate mode : Constant
Bit rate : 2 615 Kbps
Nominal bit rate : 2 700 Kbps
Width : 384 pixels
Height : 208 pixels
Display aspect ratio : 16:9
Frame rate : 29.970 fps
Resolution : 8 bits
Scan type : Progressive
Bits/(Pixel*Frame) : 1.092
Stream size : 97.9 MiB (92%)
Writing library : TMPGEnc XPress 4.7.4.299

Audio
ID : 192 (0xC0)
Format : MPEG Audio
Format version : Version 1
Format profile : Layer 2
Duration : 5mn 13s
Bit rate mode : Constant
Bit rate : 128 Kbps
Channel(s) : 2 channels
Sampling rate : 48.0 KHz
Stream size : 4.79 MiB (4%)[/code]

Related torrents

Torrent NameAddedSizeSeedLeechHealth
1 Year+ - in Music3.42 MB10
6 months ago - in Other1.08 GB00
1 Year+ - in Music73.62 MB00
1 Year+ - in Music129.36 MB00
1 Year+ - in Other213.43 KB00

Note :

Feel free to post any comments about this torrent, including links to Subtitle, samples, screenshots, or any other relevant information. Please Dont Download anything from Comments, And Dont Post Links to Streaming Sites like Fmovies, Xmovies8, 123Movies, GoMovies, CMovieshd, Solarmovie, Watchfree, Putlockers, GoStream, m4ufree etc.

Comments (1 comment)




candy96
» Downloaded this torrent Downloaded this torrent » Voted Good Voted Good for this torrent for this torrent

Added 1 Year+
nice thanx
Please login or create a FREE account to post comments

Latest Searches

| apres ski nl | pl 2017 ATTRACTION | halsey i | study hall slut | lethal weapon s02E10 psa | marvels s05e03 x265 | The Transformers more than meets the eye vol 9 | koto mp3 | BrothaLovers Jennifer Ashton | Juelz Ventura Mandingo Wrecked My Pussy |