Quick Browse
Movies
TV shows
Music
Games
Applications
Anime
Other
Facebook
Advertising

Friends
Torrent Download
Movie4u
1337x.to
Torrent Downloads




Verified torrent Raiders of the lost ark (1981) - Indiana Jones I Predatori Dell'Arca Perduta [XviD - Italian English Ac3 - Sub Ita Eng] Remastering MIRCrew [TNT Village]


    Seeders : 24      Leechers : 43

Trackers List

Tracker NameLast CheckStatusSeedersLeechers




Torrent File Content (3 files)


Indiana Jones I Predatori Dell'Arca Perduta - Raiders of the lost ark (1981)
     Indiana Jones I Predatori Dell'Arca Perduta - Raiders of the lost ark (1981).avi -
1.76 GB

     Indiana Jones I Predatori Dell'Arca Perduta - Raiders of the lost ark (1981).idx -
109.1 KB

     Indiana Jones I Predatori Dell'Arca Perduta - Raiders of the lost ark (1981).sub -
9.36 MB



Description



Raiders of the lost ark (1981) - Indiana Jones I Predatori Dell'Arca Perduta [XviD - Italian English Ac3 - Sub Ita Eng]
Remastering MIRCrew [TNT Village]


Indiana Jones I Predatori Dell'Arca Perduta - Raiders of the lost ark (1981) [XviD - Italian English Ac3 - Sub Ita Eng] Remastering MIRCrew [TNT Village]



[color=#660000]
http://img706.imageshack.us/img706/5530/mircreworiginal.gif


Indiana Jones I Predatori Dell'Arca Perduta - Raiders of the lost ark (1981)

[URL=http://www.imdb.com/title/tt0082971/]
http://img197.imageshack.us/img197/1332/imdblogo.gif
[/URL]

COLLEZIONE COFANETTO 5 DVD

http://img683.imageshack.us/img683/2669/scheda.gif


Titolo originale Raiders of the Lost Ark
Paese di produzione Stati Uniti d'America
Anno 1981
Durata 110 min

I predatori dell'arca perduta (Raiders of the Lost Ark) è un film del 1981, diretto da Steven Spielberg e capostipite della tetralogia cinematografica di Indiana Jones.

Rapporto 2,35:1
Genere avventura, azione
Regia Steven Spielberg
Soggetto George Lucas
Sceneggiatura Lawrence Kasdan
Produttore Frank Marshall
Produttore esecutivo George Lucas e Howard Kazanjian
Fotografia Douglas Slocombe
Montaggio Michael Kahn e George Lucas (non accreditato)
Effetti speciali Industrial Light & Magic
Musiche John Williams
Scenografia Norman Reynolds

http://i752.photobucket.com/albums/xx170/robbyrs/Indiana_jones_i_predatori_dellarca_perdutacoverdvd.jpg


http://i752.photobucket.com/albums/xx170/robbyrs/vlcsnap-2012-12-25-19h10m52s216.jpg



A seguire tutta la saga 5 DVD

Indiana Jones I Predatori Dell'Arca Perduta - Raiders of the lost ark (1981)
Indiana Jones E Il Tempio Maledetto - Indiana Jones and the Temple of Doom (1984)
Indiana Jones E L'Ultima Crociata - Indiana Jones and the Last Crusade, (1989)
Indiana Jones e il Regno del Teschio di Cristallo - Indiana Jones and the Kingdom of the Crystal Skull (2008)
Indiana Jones Bonus Disk - contenuti speciali

http://i752.photobucket.com/albums/xx170/robbyrs/imandixtotgd2uf4-1.gif


http://img825.imageshack.us/img825/3978/ringraziare.gif


http://i752.photobucket.com/albums/xx170/robbyrs/vlcsnap-2012-12-25-19h11m24s33.jpg


http://i752.photobucket.com/albums/xx170/robbyrs/vlcsnap-2012-12-25-19h09m45s43.jpg


http://img26.imageshack.us/img26/3271/castv.gif


Harrison Ford: Indiana Jones
Paul Freeman: René Belloq
Karen Allen: Marion Ravenwood
Wolf Kahler: Col. Herman Dietrich
Ronald Lacey: Arnold Ernst Toth
John Rhys-Davies: Sallah
Denholm Elliott: Dott. Marcus Brody
Anthony Higgins: Magg. Gobler
Don Fellows: Col. Musgrove
William Hootkins: Magg. Eaton
Alfred Molina: Satipo
Fred Sorenson: Jock
Sonny Caldinez: Mean Mongolian
Tutte Lemkow: Imam
Souad Messaoudi: Fayah
George Harris: Simon Katanga
Pat Roach: Grosso meccanico tedesco

Doppiatori italiani

Michele Gammino: Indiana Jones
Sandro Iovino: René Belloq
Paila Pavese: Marion Ravenwood
Sergio Fiorentini: Toht
Renato Mori: Sallah
Sergio Rossi: Dott. Marcus Brody
Mauro Gravina: Satipo
Gianfranco Bellini: Col. Musgrove
Gianni Marzocchi: Magg. Eaton

http://i752.photobucket.com/albums/xx170/robbyrs/vlcsnap-2012-12-25-19h09m50s111.jpg


http://i752.photobucket.com/albums/xx170/robbyrs/vlcsnap-2012-12-25-19h11m36s146.jpg


http://img705.imageshack.us/img705/4740/trama.gif


Perù, 1936. Il professore di archeologia Henry "Indiana" Jones Junior è sulle tracce di un antico idolo della fertilità, conservato in un tempio immerso nella giungla. Superati i molti

trabocchetti ed ostacoli, insieme alla sua guida Satipo, riesce a prenderlo. Satipo si rivela un doppiogiochista poiché ruba l'idolo per tenerselo tutto per sé, ma muore in una trappola nel

tentativo di scappare. Indy riesce a riprendere l'idolo, ma appena uscito con l'oggetto tra le mani, viene sorpreso dal rivale René Belloq, che riesce ad impossessarsene, mentre Jones è

costretto alla fuga, inseguito da pericolosi Indios Ovitos comandati da Belloq......................

STORYLINE:

The year is 1936. A professor who studies archeology named Indiana Jones is venturing in the jungles in South America searching for a golden statue. Unfortunately, he sets off a deadly trap

doing so, miraculously, he escapes. Then, Jones hears from a museum curator named Marcus Brody about a biblical artifact called The Ark of the Covenant, which can hold the key to humanly

existence. Jones has to venture to vast places such as Nepal and Egypt to find this artifact. However, he will have to fight his enemy Renee Belloq and a band of Nazis in order to reach

it.......


http://img30.imageshack.us/img30/3893/datifile.gif


General
Complete name : Indiana Jones I Predatori Dell'Arca Perduta - Raiders of the lost ark (1981).avi
Format : AVI
Format/Info : Audio Video Interleave
File size : 1.76 GiB
Duration : 1h 50mn
Overall bit rate : 2 277 Kbps
Writing application : VirtualDubMod 1.5.4.1 (build 2178/release)
Writing library : VirtualDubMod build 2178/release

Video
ID : 0
Format : MPEG-4 Visual
Format profile : Advanced [email protected]
Format settings, BVOP : Yes
Format settings, QPel : No
Format settings, GMC : No warppoints
Format settings, Matrix : Custom
Codec ID : XVID
Codec ID/Hint : XviD
Duration : 1h 50mn
Bit rate : 1 628 Kbps
Width : 672 pixels
Height : 288 pixels
Display aspect ratio : 2.35:1
Frame rate : 25.000 fps
Color space : YUV
Chroma subsampling : 4:2:0
Bit depth : 8 bits
Scan type : Progressive
Bits/(Pixel*Frame) : 0.336
Stream size : 1.26 GiB (71%)
Writing library : XviD 1.2.1 (UTC 2008-12-04)

Audio #1
ID : 1
Format : AC-3
Format/Info : Audio Coding 3
Format profile : Dolby Digital
Mode extension : CM (complete main)
Codec ID : 2000
Duration : 1h 50mn
Bit rate mode : Constant
Bit rate : 192 Kbps
Channel(s) : 2 channels
Channel positions : Front: L R
Sampling rate : 48.0 KHz
Bit depth : 16 bits
Stream size : 152 MiB (8%)
Alignment : Aligned on interleaves
Interleave, duration : 96 ms (2.40 video frames)
Interleave, preload duration : 96 ms
Language : Italian

Audio #2
ID : 2
Format : AC-3
Format/Info : Audio Coding 3
Mode extension : CM (complete main)
Codec ID : 2000
Duration : 1h 50mn
Bit rate mode : Constant
Bit rate : 448 Kbps
Channel(s) : 6 channels
Channel positions : Front: L C R, Side: L R, LFE
Sampling rate : 48.0 KHz
Bit depth : 16 bits
Stream size : 354 MiB (20%)
Alignment : Aligned on interleaves
Interleave, duration : 96 ms (2.40 video frames)
Interleave, preload duration : 96 ms
Language : English



http://img690.imageshack.us/img690/2373/residentinseed.gif



[/color]

Related torrents

Torrent NameAddedSizeSeedLeechHealth
Verified torrent
1 Year+ - in Movies1.77 GB11
Verified torrent
1 Year+ - in Movies1.37 GB142
Verified torrent
1 Year+ - in Movies1.77 GB11
Verified torrent
1 Year+ - in Movies1.57 GB00
4 months ago - in Movies1.7 GB91

Comments (0 Comments)




Please login or create a FREE account to post comments

Latest Searches

| 1994 miles | Jimi Hendrix killing floor | Moms Love Jayden Rae | Blue 2009 Hindi 720p | jenny appach 1080p | Lil Wayne high school | ANTHOLOGY CONCERT | paleface 1922 | electronica house 2016 | jav censored dense |