Quick Browse
Movies
TV shows
Music
Games
Applications
Anime
Other
Facebook
Advertising

Friends
Torrent Download
Movie4u
1337x.to
Torrent Downloads




Verified torrent Rango (2011) DVDSCR XviD-MAXSPEED


    Seeders : 0      Leechers : 0
Hash :200B4D0697C26CBD37A23D648F18EF051BC0A6AF
Added :1 Year+ by piratepediaVerified torrent uploader in Movies
Size :1.37 GB
Stream :WATCH ONLINE @ Movie4u


Rango (2011) DVDSCR XviD-MAXSPEED
Free and Fast Download with Usenet 300GB+ free







Trackers List

Tracker NameLast CheckStatusSeedersLeechers




Torrent File Content (8 files)


Rango (2011) DVDSCR XviD-MAXSPEED
     Rango (2011) DVDSCR XviD-MAXSPEED www.torentz.3xforum.ro.avi -
1.37 GB

     sample.avi -
8.07 MB

     screencaps.jpeg -
153.27 KB

     Rango (2011) DVDSCR XviD-MAXSPEED.nfo -
2.55 KB

     Torrent downloaded from Demonoid.me.txt -
46 bytes

     Torrent downloaded from Extratorrent.com.txt -
40 bytes

     Torrent downloaded from Rarbg.com.txt -
33 bytes

     Torrent downloaded from h33t.com.txt -
32 bytes



Description



http://leetleech.org/images/67121578416349506103.jpg


Screens:

http://leetleech.org/images/37085989094753450044.jpg

http://leetleech.org/images/71295089789165449884.jpg

http://leetleech.org/images/28333524772863855243.jpg

http://leetleech.org/images/27133034605419951861.jpg


Alternative:

[code]http://www.postimg.com/image/38000/photo-37301.jpg
http://www.postimg.com/image/38000/photo-37302.jpg
http://www.postimg.com/image/38000/photo-37303.jpg
http://www.postimg.com/image/38000/photo-37304.jpg[/code]

ScreenCaps:

http://www.postimg.com/38000/photo-37305.jpg


[code]Rango (2011) DVDSCR XviD-MAXSPEED
Format : AVI
Format/Info : Audio Video Interleave
Format profile : OpenDML
File size : 1.37 GiB
Duration : 1h 47mn
Overall bit rate : 1 823 Kbps
Writing application : VirtualDubMod 1.5.10.2 (build 2542/release)
Writing library : VirtualDubMod build 2542/release
Original source form : MAX TORRENTZ
Copyright : SIGISMUNT

Video
ID : 0
Format : MPEG-4 Visual
Format profile : [email protected]
Format settings, BVOP : Yes
Format settings, QPel : No
Format settings, GMC : No warppoints
Format settings, Matrix : Custom
Codec ID : XVID
Codec ID/Hint : XviD
Duration : 1h 47mn
Bit rate : 1 625 Kbps
Width : 720 pixels
Height : 304 pixels
Display aspect ratio : 2.35:1
Frame rate : 23.976 fps
Resolution : 24 bits
Colorimetry : 4:2:0
Scan type : Progressive
Bits/(Pixel*Frame) : 0.310
Stream size : 1.22 GiB (89%)
Writing library : XviD 58

Audio
ID : 1
Format : AC-3
Format/Info : Audio Coding 3
Codec ID : 2000
Duration : 1h 47mn
Bit rate mode : Constant
Bit rate : 192 Kbps
Channel(s) : 2 channels
Channel positions : L R
Sampling rate : 48.0 KHz
Stream size : 147 MiB (11%)
Alignment : Aligned on interleaves
Interleave, duration : 64 ms (1.53 video frames)
Interleave, preload duration : 192 ms

Source: DVDSCR (perfect a/v/sync quality , sample included)
This release is not seedbox supported , please seed it to the MAX

How To Get Your Maxspeed (uTorrent)

Torrent Client - Preferences - Bandwidth - Number of connections - Set aprox. 500 for each
Torrent Client - Preferences - BiTorrent - Protocol Encryption - Forced
Bandwidth Allocation - High (Set download/upload limit - Unlimited)
Stop Other Active Torrents - Start downloading and wait for connections.
Enjoy and Seed for at least 1:1 ratio. Don't forget to say thanks/leave reviews.
Before downloading you should check/google search sample "release name""sample".
Greets to all actual/future p2p/scene QUALITY groups and affiliate websites.
Don't trust IMDb robot or bad ratings,always watch some trailers first.
Ignore stupid comments/fake/mislabeled/no-DVDrips/CAM/TS/RAR uploads.
Please spread this release/torrent to your friends/forums/etc.
If you need translation subs visit some subtitles sites.
Report if you see online streaming or other spam links.
Recommended movie player VLC PLAYER.[/code]

Related torrents

Torrent NameAddedSizeSeedLeechHealth
Verified torrent
1 Year+ - in Movies1.37 GB00
2 Comments
1 Good
1 Year+ - in Movies699.94 MB10017
1 Year+ - in Movies1.37 GB00
1 Year+ - in Movies1.37 GB00
1 Year+ - in Movies1.37 GB00

Comments (1 comment)




Mslantarona
» Downloaded this torrent Downloaded this torrent » Voted Good Voted Good for this torrent for this torrent

Added 1 Year+
Very good quality.Thanks
Please login or create a FREE account to post comments

Latest Searches

| Marvels Agents of S H I E L D Season 4 Episode 9 | top on anal | emerson lake and palmer | V DASH pro | mommy son conor | Game of thrones 5 book bundle | Get Out Unrated Granville Island | arrow 01 04 | horriblesubs one piece 480p mkv | melody ghost explicite |