Quick Browse
Movies
TV shows
Music
Games
Applications
Anime
Other

Donate and Support

Friends
Torrents.me
Torrent Download
Free Movies
1337x
RARBG
Torrent Downloads

Verified torrent Rango (2011) DVDSCR XviD-MAXSPEED


    Seeders : 0      Leechers : 0
Hash :CF7C12F0D71AFA3C76ABF928C11680C052313FFA
Added :1 Year+ by milsanaup1Verified torrent uploader in Movies
Size :1.37 GB
Stream :Watch Full Movies Online @ Movie4u
Share :


Rango (2011) DVDSCR XviD-MAXSPEED
Anonymous and Direct Download 300GB+ free







Warning! Do not Download Torrents Without a VPN!
Your IP Address is .   And Location is
Your Internet Provider and Government can track your torrent Activity!  Hide your IP ADDRESS with a VPN!
We Strongly Recommend Using SpyOFF Torrent VPN to Anonymize your Torrenting. It's FREE For 15 Days!

Note :

Please Update (Trackers Info) Before Downloading Torrents to See Updated Seeders And Leechers for Batter Download Speed.

Trackers List

Tracker NameLast CheckStatusSeedersLeechers




Torrent File Content (4 files)


Rango (2011) DVDSCR XviD-MAXSPEED
     Rango (2011) DVDSCR XviD-MAXSPEED.avi -
1.37 GB

     sample.avi -
8.07 MB

     screencaps.jpeg -
153.27 KB

     help.nfo -
1.31 KB



Description



http://cmagz.com/wp-content/uploads/2011/04/rango-movie-poster.jpg




Movie Info:


Rango (2011) DVDSCR XviD-MAXSPEED
Movie Information:..:
Original Movie Site:: http://www.rangomovie.com/
IMDB::::::::::::::::: http://www.imdb.com/title/tt1192628/
Genre:::::::::::::::: Animation | Adventure | Comedy
Plot::::::::::::::::: Rango is an ordinary chameleon who accidentally winds up in the town of Dirt, a lawless outpost in the Wild West in desperate need of a new sheriff.



Video Stats....:

Format : AVI
Format/Info : Audio Video Interleave
Format profile : OpenDML
File size : 1.37 GiB
Duration : 1h 47mn
Overall bit rate : 1 823 Kbps
Writing application : VirtualDubMod 1.5.10.2 (build 2542/release)
Writing library : VirtualDubMod build 2542/release
Original source form : MAX TORRENTZ
Copyright : SIGISMUNT

Video
ID : 0
Format : MPEG-4 Visual
Format profile : [email protected]
Format settings, BVOP : Yes
Format settings, QPel : No
Format settings, GMC : No warppoints
Format settings, Matrix : Custom
Codec ID : XVID
Codec ID/Hint : XviD
Duration : 1h 47mn
Bit rate : 1 625 Kbps
Width : 720 pixels
Height : 304 pixels
Display aspect ratio : 2.35:1
Frame rate : 23.976 fps
Resolution : 24 bits
Colorimetry : 4:2:0
Scan type : Progressive
Bits/(Pixel*Frame) : 0.310
Stream size : 1.22 GiB (89%)
Writing library : XviD 58

Audio
ID : 1
Format : AC-3
Format/Info : Audio Coding 3
Codec ID : 2000
Duration : 1h 47mn
Bit rate mode : Constant
Bit rate : 192 Kbps
Channel(s) : 2 channels
Channel positions : L R
Sampling rate : 48.0 KHz
Stream size : 147 MiB (11%)
Alignment : Aligned on interleaves
Interleave, duration : 64 ms (1.53 video frames)
Interleave, preload duration : 192 ms


Plot:
Rango is an ordinary chameleon who accidentally winds up in the town of Dirt, a lawless outpost in the Wild West in desperate need of a new sheriff.


+------+
|Greetz|
+------+
WBZ,VISION,CM8,RX,IMAGINE,KINGSTON100,ALBERT,NWRG to all p2p and scene past and present :D

Related torrents

Torrent NameAddedSizeSeedLeechHealth
1 Comments
3 Good
Verified torrent
1 Year+ - in Movies1.37 GB00
2 Comments
1 Good
1 Year+ - in Movies699.94 MB10017
1 Year+ - in Movies1.37 GB00
1 Year+ - in Movies1.37 GB00
1 Year+ - in Movies1.37 GB00

Comments (0 Comments)




Please login or create a FREE account to post comments

Latest Searches

| six feet under 1 2 3 | The Legends of Treasure Island | Be slow | The F Word US S01E08 | j balvin mi gente | bbc summer love | 2017 movies Despicable Me 3 | Gadget Geeks S01E12 | A gin | Ferre Gola QQJD Vol 3 |