Quick Browse
Movies
TV shows
Music
Games
Applications
Anime
Other
Facebook
Friends
Torrent Download
Free Movies
1337x.to
Torrent Downloads

Verified torrent Real Steel (2011) DVDRip XviD-MAX


    Seeders : 0      Leechers : 0
Hash :A054656EA63CA90D886A706BB036F77E65249E07
Added :1 Year+ by robyrsVerified torrent uploader in Movies
Size :791.34 MB
Stream :Watch Full Movies Online @ Movie4u
Share :


Real Steel (2011) DVDRip XviD-MAX
Anonymous and Direct Download 300GB+ free







Warning! Do not Download Torrents Without a VPN!
Your IP Address is .   Location is
Your Internet Provider and Government can track your torrent Activity!  Hide your IP ADDRESS with a VPN!
We Strongly Recommend Using SpyOFF VPN to Anonymize your Torrenting. It's FREE!

Note :

Please Update (Trackers Info) Before Downloading Torrents to See Updated Seeders And Leechers for Batter Download Speed.

Trackers List

Tracker NameLast CheckStatusSeedersLeechers




Torrent File Content (6 files)


Real Steel (2011) DVDRip XviD-MAX
     Real Steel (2011) DVDRip XviD-MAXSPEED www.torentz.3xforum.ro.avi -
791.34 MB

     The Hangover 2 (2011) DVDRip XviD-MAXSPEED.nfo -
2.98 KB

     Torrent downloaded from Demonoid.me.txt -
46 bytes

     Torrent downloaded from Extratorrent.com.txt -
40 bytes

     Torrent downloaded from h33t.com.txt -
32 bytes

     Torrent downloaded from Rarbg.com.txt -
33 bytes



Description



Image Links:

http://shareimage.org/images/68j2db3fb2cff4vz1teb.jpg


http://shareimage.org/images/518dmg4bunc7hmflllv4.jpg


http://shareimage.org/images/i8andpkjz0jugvf58ph.jpg


Alternatives:

http://www.postimg.com/image/50000/photo-49802.jpg


http://www.postimg.com/image/50000/photo-49803.jpg


http://www.postimg.com/image/50000/photo-49804.jpg


http://www.postimg.com/image/50000/photo-49805.jpg


http://www.postimg.com/image/50000/photo-49806.jpg


http://www.postimg.com/image/50000/photo-49807.jpg


Real Steel (2011) DVDRip XviD-MAX
Format : AVI
Format/Info : Audio Video Interleave
Format profile : OpenDML
Duration : 1h 37mn
Overall bit rate : 2 151 Kbps
Writing application : VirtualDubMod 1.5.10.2 (build 2542/release)
Writing library : VirtualDubMod build 2542/release
Original source form : MAX TORRENTZ
Copyright : SIGISMUNT

Video
ID : 0
Format : MPEG-4 Visual
Format profile : [email protected]
Format settings, BVOP : Yes
Format settings, QPel : No
Format settings, GMC : No warppoints
Format settings, Matrix : Custom
Codec ID : XVID
Codec ID/Hint : XviD
Duration : 1h 37mn
Bit rate : 1 950 Kbps
Width : 672 pixels
Height : 288 pixels
Display aspect ratio : 2.35:1
Frame rate : 29.970 fps
Resolution : 24 bits
Colorimetry : 4:2:0
Scan type : Progressive
Bits/(Pixel*Frame) : 0.336
Stream size : 1.33 GiB (91%)
Writing library : XviD 1.2.1 (UTC 2008-12-04)

Audio
ID : 1
Format : MPEG Audio
Format version : Version 1
Format profile : Layer 3
Codec ID : 55
Codec ID/Hint : MP3
Duration : 1h 37mn
Bit rate mode : Constant
Bit rate : 192 Kbps
Channel(s) : 2 channels
Sampling rate : 48.0 KHz
Resolution : 16 bits
Stream size : 134 MiB (9%)
Alignment : Aligned on interleaves
Interleave, duration : 24 ms (0.72 video frame)
Interleave, preload duration : 192 ms

http://www.imdb.com/title/tt0433035/

Source: DVDRip (perfect a/v/sync quality-original source resynced,sample included)
This torrent is not seedbox supported,please seed it to the MAX

Note:If you have something to offer as early releases,seedboxes,links,accounts,etc
please contact us on piratepedia[@]msn/gmail.com or our website torentz 3xforum ro

Real Steel (2011) DVDRip XviD-MAX Torrent Free Download


How To Get Your Maxspeed (uTorrent)

Torrent Client - Preferences - Bandwidth - Number of connections - Set aprox. 500 for each
Torrent Client - Preferences - BiTorrent - Protocol Encryption - Forced
Bandwidth Allocation - High (Set download/upload limit - Unlimited)
Stop Other Active Torrents - Start downloading and wait for connections.
Enjoy and Seed for at least 1:1 ratio. Don't forget to say thanks/leave reviews.
Before downloading you should check/google search sample "release name""sample".
Greets to all actual/future p2p/scene QUALITY groups and affiliate websites.
Don't trust IMDb robot or bad ratings,always watch some trailers first.
Ignore stupid comments/fake/mislabeled/no-DVDrips/CAM/TS/RAR uploads.
Please spread this release/torrent to your friends/forums/etc.
If you need translation subs visit some subtitles sites.
Report if you see online streaming or other spam links.
Recommended movie player VLC PLAYER.

Related torrents

Torrent NameAddedSizeSeedLeechHealth
1 Year+ - in Movies1.42 GB00
Verified torrent
1 Year+ - in Movies919.76 MB08
3 months ago - in Movies945.27 MB00
1 Year+ - in Movies4.3 GB398
7 months ago - in Movies1.31 GB00

Comments (7 Comments)




bobbymills
» Voted Good Voted Good for this torrent for this torrent
--1

Added 1 Year+
fake fake fake
ChaTurpin
» Voted Good Voted Good for this torrent for this torrent
+1

Added 1 Year+
Thanks matey ;)
Quinuso
» Voted Good Voted Good for this torrent for this torrent
+1

Added 1 Year+
kinda hard to play the movie if your not a talented dick,its not gonna play.open the mfile they give you questions then pick one...it works for me.thnx
KrisKarvin
» Voted Good Voted Good for this torrent for this torrent
+1

Added 1 Year+
got that right!...will wait for better rip 100 thanks for the upload
GTX2013
» Voted Good Voted Good for this torrent for this torrent

Added 1 Year+
@ uploader you should give us a sample so all the hesitate will be gone.
GTX2013
» Voted Good Voted Good for this torrent for this torrent
+1

Added 1 Year+
but thanks for upload not bad for a newbee
pitzz

Added 1 Year+
i cant play this file..help please..how?.
Please login or create a FREE account to post comments

Latest Searches

| 300 Rise Of An Empire | legalporno terry | xvid american gods | Logan 2017 subtitles | apolonia double | The Floodgates | F R I E N D S tv show | Master of None 2x02 | TeensLikeItBig Nekane Sweet Nekanes Sweet Pussy 720p HEVC x265 | Rise Of An Empire300 |